&title=粉骨砕身カジノゥ
&artist=モリモリあつし
&first=-0.01
&des=ダニス・チャン
&clock_count=4
&lv_5=14
&inote_5=(198)
{1},,
{8}5x/1xh[4:12],,,,2h,,,,3h,,,,4h,,,,5h,,,,6h,,,,7h,,,,8h,B1/B2/E2,B1/B2/E2,,
{8}8h[8:3]/2x,,4,4,5h[8:3]/6x,,8,8,1h[8:3]/7x,,5,5,4/2x-6[8:1],,8,,
{8}5/7,6,2/4,3,5,{32}1,2,3,4,{16}6,5,6,5,7,,2,1,2,,8,1,{8}8w4[8:1],7,8b,,
{16}2x/5x,,3,4,3,,2,,6-1[8:1],5,6,,3,,,,
{16}7x/4x,,6,5,6,,7,,3-8[8:1],4,3,,6,,,,
{16}1x/5x,,2,4,3,,2,,6-1[8:1],5,6,,3,,,,
{8}2-6[8:1],2,7-3[8:1],7,4-8[8:1],4,5b,,
{16}2,1,2,1,3,8,3,8,1,7,1,7,2,6,2,6,3,4,3,6,5,6,3,4,2,1,2,7,8,7,2,1,
{8}3-8[8:1],7,3,6-1[8:1],4,6,3,2,{16}8x,7,6,5,1x,2,3,4,{32}8x,7,6,5,4,3,2,1,
{8}8x/4x,,{16}2b/6b,,3,4,2b,,6,5,7b,,1,8,2b>8[4:2],,,,
{4}2bxh[4:2],,,,
{8}1/7,{16}2,4,1<6[8:1],,2,,{24}1,2x,3x,4x,,,{8}1,1,
{16}8,8,8,8,{8}7-3[8:1],6,1-5[8:1],2,8,,
{8}8x,8x,{16}2,1,2,,8-4[8:1]/3,,4-7[8:1],,3/8,,2h[4:1],,,,
{8}8,7-5[8:1],1-3[8:1],7xb-3[8:1],1xb,7xb,,
{8}1,1<6[8:1],,3>8[8:1],,4,4,,6,6h[8:2],{32}E2,E1,E8,E7,E6,E5,E4,,
{8}1x/2x,3x/8x,4x/7xh[4:1],,{8}8,8,
{16}1,7,1,7,{8}2,3/6,4/7,8-4[8:1],1b,8-6[8:1],2b,8-4[8:1],3b,8,
{16}1b,1b,,,
{8}8,8>3[8:1],,6<1[8:1],,5,5,,3,3h[8:2],{32}E8,E1,E2,E3,E4,E5,E6,,
{8}7x-3[8:1],1-5[8:1],,,
{8}6,6<1[8:1],,4<7[8:1],,3,3,,1,1h[8:1],{16}8,7,6,,
{8}2-6[8:1],8-4[8:1],,,
{8}5b,5-2[8:1],,7-4[8:1],,8,1,,1b,1-6[8:1],,3-8[8:1],,4,5,,
{16}6h[16:3],,,5,6,,4/7,,3h[16:3],,,4,3,,2/5,,
{32}1,2,3,4,5,6,7,8,1,2,3,4,5,6,7,8,1,2,3,4,5,6,7,8,1,2,3,4,5,6,7,8,
{8}1b/5b,{16}2,4,2,,2,1,2,,2,6,2,,2,8,2,,2,4,2,,2,3,2,,2,7,2,,2,1,2,,
{16}3,4,3,,3,1,3,,3,7,3,,3,1,3,,3,5,3,,3,4,3,,3,8,3,,3,2,3b,,
{16}8,1,8,,3,4,3,,7,8,7,,2,3,2,,7,6,7,,2,1,2,,6,5,6,,1,8,
{16}1b,8,1,8,1,8,1,8,2,7,2,7,2,7,2,7,
{16}1,8,2,7,3,6,4,5,2,1,3,8,4,7,5,6,
{4}8b,,,,7,,,1b,6,8b,,,5,,{16}8b,,,8b,,,8b,,
{8}4,,7b/4,,4,,4/6b,,3,,3/5b,,5b,5b,5b,5b,
{8}4xb/2,2,2,2,{16}1h[8:1],,{32}8xb,7,6,5,{16}2h[8:1],,{32}8xb,7,6,5,
{32}1x,2x,3x,4xh[32:5],,,,,{8}8x-2v3-5[16:6],,,,,,
{16}2x/6x,,4,4,4,,5,5,5,,4,4,4,,5,,{16}2,2,4,4,5,5,7,7,3,3,4,4,5,5,6,6,
(132)
{4}Cf,,,,
{16}B3,B7,B1,,B5/E6,,B2/B3,,B8,B4,B6,,B1/B2,,E6/B6,,
{16}E2,B2,B3,,C,,{32}E8,B7,B6,E6,{16}E4/B4,,C,,B7/E8,,,,
{16}2/5,,3/4,3/4,3/4,,2/5,,8/3,,1/6,,1>4[8:1]/2<7[8:1],,,,
{16}A1/A2/D2f,,,,E4,B8,E3,B7,E2,B6,C,,E5/E1,,,,
{16}B6,B2,B8,,B4/E4,,B7/B6,,B1,B5,B3,,B8/B7,,E4/B3,,
{16}E8,B7,B6,,C,,{32}E2,B2,B3,E4,{16}E6/B5,,C,,B2/E2,,,,
{12}4/6,4/6,4/6,5/3,5/3,5/3,4-1[8:1]/6,4/6,4/6,4/6,,,
{16}B6/B7f/B2/B3`C,,,,2,4,3,4,2-5[8:1],,1/8,,1/2,,,,
{16}7,8,6,8,7,,1,,2/5,,7/4,,1s5[8:1]/8z4[8:1],,,,1b/8b,,,,
{16}3/6,,2/7,,1-5[8:1]/8-4[8:1],,2/7,,,,,,
{16}7/4,,6/5,6/5,6/5,,7/4,,1/6,,8/3,,7<4[8:1]/8>3[8:1],,,,
{16}8b/7b,,,,2,5,3,4,2,1,3,8,1<6[8:1]/2p5[8:1],3,8,,
{16}1b/2b,,,,6,,5,,7,8,6,1,8p3[8:1]/7<4[8:1],6,1,,
{16}8b/7b,,,,2,1,2,1,3b/8b,,3/8,,6,5,6,5,7b/4b,,2/1,2/1,3b/8b,,7/8,7/8,1b/6b,,
{16}3/4,3/4,2b/5b,,,,
(198)
{4}8>4[4:1],4<8>6[4:2],,,1xb,2xb,3xb,{8}4-8[8:1],5,4b,
{8},5h,,,,5h,,,,5h,,,,5h,,,,5h,,,,5h,,,,5h[8:4],,,1b,1b,,
{16}2,1,2,1,3,8,3,8,1,7,1,7,2,6,2,6,3,4,3,6,5,6,3,4,2,1,2,7,8,7,2,1,
{8}3-8[8:1],7,3,6-1[8:1],4,6,3,2,{16}8x,7,6,5,1x,2,3,4,{8}5/1,7/3,2/5,4/7,
{8}4-1[8:1]/5-8[8:1],,4b/5b`Cf,,
{16}3-8[8:1],5,4-7[8:1],,3,,4,,2,1,2,,7,8,6,,1-5[8:1],,7-3[8:1],,1,,7,,
{16}4,,6,5,6,,1,7,8-3[8:1],,7-4[8:1],,8,,7,,1,,6,5,7,,3,4,3,4,2,5,1,6,8,7,
{16}2b,1,2,1,4,8,4,8,1b,7,1,7,2,5,2,5,3b,4,2,6,5b,7,3,4,2b,1,3,7,8b,6,3,4,
{8}2b-5[8:1],2,2/7-4[8:1],7,7/3-7[8:1],3,3/5-1[8:1],5,
{16}5/1x,2,3,4,8x,7,6,5,{32}2,,,,8b,7,6,5,3,,,,8b,7,6,5,
{16}4xh[8:1],,6,5,7xh[8:1],,3,4,2xh[8:1],,6,5,8xh[8:1],,1,2/7x,
{1}3b>5[4:7]/6xb<4[4:7],,E
