&title=零ノ花
&artist=flower , 足立レイ
&first=0.05
&des=月浅微微凉
&lv_5=13+
&inote_5=(145)
{4},,,,,,,
{4}6h[8:5],
{8}5,4,3,2q6[16:3],,1,8,7,
{8}6h[8:3],5,4,3<6[16:3],,1,8,7,
{8}6,6h[8:2],5,4<6[16:3],,1,8p2[8:5],7<2[8:4],
{4},,,6h[8:5],
{8}2,3,4,5p1[16:3],,1,8,7,
{8}6h[8:3],2,3,4>1[16:3],,1,8,7,
{8}6,6h[8:2],2,3>1[16:3],,4,5p3[16:10]*<3[16:10],6,
{4},,,8b,
{16}3/5,,2,,6h[16:2],,5,6,,4<6[96:9],5,,1,,2,,
{16}3/5,,2,,6h[16:2],,5,6,,4<6[96:8],5,,1,,2,,
{16}3/5,,2,,6h[16:2],,5,6,,4<6[96:7],5,,1,,2,,
{16}3/5,,2,,6h[16:2],,5,6,,4,7,,3,5,1,,
{16}6/4,,7,,3h[16:2],,4,3,,5>3[96:9],4,,8,,7,,
{16}6/4,,7,,3h[16:2],,4,3,,5>3[96:8],4,,8,,7,,
{16}6/4,,7,,3h[16:2],,4,3,,5>3[96:7],4,,8,,7,,
{16}6/4,,7,,3h[16:2],,4,3,,2,5,,4,6,1,,
{8}2h[8:3],3,4,5<8[8:2],,8,1,2,
{8}3,3h[8:2],4,5<8[8:2],,8,1,2,
{8}3,4,4h[8:1],5<8[8:2],,8,1,2,
{8}3h[8:2],,6,5/7h[8:3],,,1,,
{8}3h[8:3],4,5p1[16:5],6,,7,6,5,
{8}3h[8:3],4,5p1[16:5],6,,8,7,6,
{8}3h[8:3],4,5p1[16:5],6,,1,8,7,
{8}2,2h[8:2],3q5[16:5],3,,,1,,
{16}3/5,,2,,7h[16:2],,5,6,,4<6[96:9],5,,1,,2,,
{16}3/5,,2,,6h[16:2],,5,6,,5<7[96:8],4,,2,,3,,
{16}4/6,,3,,5h[16:2],,4,5,,6<8[96:7],3,,2,,3,,
{16}4/6,,3,,2/4h[16:2],,2,4,,6,4,,5,7,1,,
{8}7h[8:1],5h[8:1],6h[8:1],8>3[8:2],,4,5,6,
{8}7h[8:1],6h[8:1],8h[8:1],5>2[8:2],,1,8,7,
{8}6h[8:1],5h[8:1],7h[8:1],8>3[8:2],,4,5,6,
{8}7pp4[8:3],7,3,2>5[8:1],,,6,,
{8}7h[8:1],5h[8:1],8h[8:1],6>3[8:2],,1,8,7,
{8}6h[8:1],8h[8:1],7h[8:1],5>2[8:2],,1,8,7,
{8}6h[8:1],5h[8:1],7h[8:1],4>1[8:2],,1,8,7,
{8}6p8[8:2],6,2p4[8:2],2,,,7,,
{16}3<6[8:1],,2,,6,,7,,3<6[8:1],,2,,6,,7,,
{16}3<6[8:1],,2,,6,,7,,4v2[8:1],8<4[8:1],4,8,,,,,
{16}3v6[8:1],,2,,6,,7,,3v6[8:1],,2,,6,,7,,
{16}3v6[8:1],,2,,6,,7,,8h[16:3],,6,6,,8,1/7,,
{16}6>3[8:1],,7,,3v6[8:1],,2,,6>3[8:1],,7,,3v6[8:1],,2,,
{16}6>3[8:1],,7,,3,,2,,7q4[8:1]/1p4[8:1],,8,8,,,,,
{16}3<6[8:1],,3,,7p3[8:1],,7,,2q6[8:1],,2,,7<4[8:1],,7,,
{16}3,,2,,1pp1[8:2],,8,,7/1<1[8:2],,,,,,,,
{16}7v4[8:1],,6,,4v1[8:1],,3,,2h[8:2]/4v7[8:1],,,,4,,,,
{16}8v5[8:1],,1,,2pp1[8:3],,3,,4v1[8:1],,,,,,,,
{16}5>3[8:1],,5,,2q6[8:1],,2,,7pp1[8:1],,7,,3,,4,,
{8}5p8[8:1]/1p4[8:1],,1/5,,1/5,1/5,2/6,2/6,
{8}3/7p3[8:1],8,1,2h[8:2],,3<6[8:1],2,1,
{8}8p4[8:1],1,2,3h[8:2],,4<7[8:1],3,2,
{8}1>4[8:1],2,1/5qq3[8:1],6,8<5[8:1],7,4v7[8:1],3,
{8}4v1[8:1]/2h[8:2],,4qq3[8:1]*pp5[8:1],,4,,8,7,
{8}6q2[8:1],5,4,3h[8:2],,2<7[8:1],3,4,
{8}5q1[8:1],4,3,2h[8:2],,1<6[8:1],2,3,
{8}4<7[8:1],3,4/1v4[8:1],2,3>8[8:1],2,3/5pp5[8:2],6,
{8}5qq6[8:3]/1qq2[8:3],,,,,,3b/7b,,
{16}2/5,,3,,4/6h[16:2],,5,6,,3,4,2,5,,8,,
{16}7/4,,6,,5/3h[16:2],,4,3,,6,5,7,4,,1,,
{16}2/5,,3,,4/6h[16:2],,5,6,,2,5,3,4,,8,,
{16}7/4,,6,,5/3,,2,4,3,7,5,6,3,4,1,,
{16}5/7,,4,,2/6,,3,4,,6,6,5,7,,1,,
{16}4/2,,5,,7/3,,6,5,,3,3,4,2,,8,,
{16}5/7,,4,,2/6,,3,4,,6,5,7,7,,1,,
{16}4/2,,5,,7/3,,6,5,7,7,3,4,2,2,8,,
{16}6>3[8:1],,7,,3,,2,,6v3[8:1],,7,,3,,2,,
{16}2<7[8:1],,3,,4,,5,,6p1[8:1],1>5[8:1],6,1,,,,,
{16}7>2[8:1],,6,,2,,3,,7v2[8:1],,6,,2,,3,,
{16}3<6[8:1],,2,,1,,8,,8p4[8:1],5p1[8:1],8,5,,,,,
{16}6>3[8:1],,7,,3<6[8:1],,2,,7<4[8:1],,8,,2>5[8:1],,1,,
{16}7p3[8:1],,8,,2,,1,,4v2[8:1],1v3[8:1],4,1,,,,,
{16}5<8[8:1],,5,,2q3[8:2],,2,,1,,1,,8<5[8:1],,8,,
{16}4>1[8:1],,4,,7p6[8:2],,7,,7<7[8:2],,,,,,,,
{16}4v1[8:1],,3,,7<4[8:1],,6,,8v5[8:1]*v3[8:1],,,,8,,,,
{16}2>5[8:1],,1,,8v5[8:1],,7,,4v1[8:1]*v7[8:1],,,,4,,,,
{16}6>4[8:1],,6,,3q7[8:1],,3,,8pp2[8:1],,,,7/8,,,,
{16}1/6,,7,8,7,,5,6,4,5,3,6,2,7,1h[8:1],,
{1}8b>8[8:26],,,,
{4}3<5[8:2],,1>3[8:2],,7>1[8:2],,5<7[8:2],,
{4}1<5[8:2],5>1[8:2],1<1[8:4],5,
{8}8,7,6,5,{32}4,,3,,2,,1,,8,7,6,5,4,3,2,1,
{16}8b>3[8:1],,7,,8/6,,5,5,4p8[8:1],,4,,5,,6,,
{16}7<4[8:1],,6,,1/7,,2,2,3q7[8:1],,3,,2,,1,,
{16}8>3[8:1],,7,,8/5p1[8:1],,6,,7p3[8:1],,6,,7/1>4[8:1],,2,,
{16}1/5v2[8:1],,6,,8<5[8:1],,7,,8/4pp6[8:1],,3,,2,,1,,
{16}8<4[8:1],,7,,8/2,,1,1,3q7[8:1],,3,,2,,1,,
{16}8>4[8:1],,7,,8/6,,7,7,5p1[8:1],,5,,6,,7,,
{16}2>5[8:1]/8,,1,,2/6p2[8:1],,7,,8p4[8:1],,1,,3q7[8:1]/8,,2,,
{16}1>4[8:1],,8,,5p1[8:1]/1,,6,,7<2[8:1]*p2[8:1],,,,7b,,,,
{16}1/7,,3,4,2,,6,5,,2,4,3,5,,1,,
{16}2/8,,7,5,6,,2,4,,7,5,6,4,,8,,
{16}1/7,,2,4,3,,1,7,,6,5,7,3,4,1,,
{16}2/8,,6,5,7,,4,5,3,4,2,5,1,6,8,,
{16}2/7,,3,3,4,2,5,3,,7,4,6,5,8,8,,
{16}1/6,,7,5,6,6,4,5,,3,4,2,2,8,1,,
{16}2/7,,5,6,4,5,3,3,4,2,5,1,6,5,7,7,
{16}2,1,3,7,5,6,3,4,2,5,1,6,{24}7<4[16:4],8,1,2p6[16:2]*p6[16:2],
