&title=D/N/A
&artist=25時、ナイトコードで。
&first=0.17
&des=L/y/N/n
&des_5=L/y/N/n
&lv_5=13+
&inote_5=(150)
{4}1s5[8:5]b,8z4[8:3],,,
{2}4hx[4:14]/3h[96:1],2h[96:1],1h[96:1],8h[96:1],7h[96:1],6h[96:1],5h[96:1],
{4}5s1[8:1]*z1[8:1],,
{4}1/2^5[8:1],12,
{16}5h[8:1]/6h[8:1],,,5h[8:1]/6h[8:1],,,56,,
{4}8/7^4[8:1],87,
{16}4h[8:1]/3h[8:1],,,4h[8:1]/3h[8:1],,,43,,
{4}1/2^5[8:1],12,
{16}5h[8:1]/6h[8:1],,,7h[8:1]/6h[8:1],,,78,,
{4}1/8-4[8:1],8/1-5[8:1],
{8}18,7,6,,
{16}5pp7pp8[4:5],,,4,,,3,,
{4},,
{16}3,,,4,,,5^2[4:1],,
{4},,
{16}6qq6pp6[4:5],,,5,,,4,,
{4},,
{4}2x^5[8:1],,5x-1[8:1],,
{16}8h[16:3],,,7h[16:3],,,6h[8:3],,
{4},C,
{16}2h[16:3],,,3h[16:3],,,4h[8:3],,
{4},C,
{4}7qq5[4:1],,1pp3[4:1],,8z4[4:2],,
{8},3,2,1,
{4}8-4[8:1],7,
{16}6h[16:3],,,5h[16:3],,,4,,
{4}4-8[8:1],3,
{16}2h[16:3],,,1h[16:3],,,8,,
{4}8-3[8:1],6,
{16}5h[8:1],,,4h[8:1]/6h[8:1],,,37,,
{4}8/2-6[8:1],2/8-4[8:1],
{8}28,
{8}1,2,3,
{8}4-8[8:1],5-7[12:1],4,5,
{16}8x-4[8:1],,,1x,,,2x,,
{8}3-8[8:1],4-7[8:1],3,4,
{16}8x-3[8:1],,,7x,,,6x,,
{4}5-3[12:1],5/2-6[8:1],
{16}2/7<3[4:1],,,3x,,,2x,,
{4}1^4[8:1],1^6[8:1],
{8}1,2,3,4,
{1}5x^4-1^8-5[4:7],,
{1}2xp6p2[4:3],
{8}8,7,6,5,4,3,2,1,
{16}7h[8:1]/8h[8:1],,,4h[8:1]/5h[8:1],,,
{8}1z5[8:1]/2s6[8:1],,,,,
{8}4h[16:1]/3,4h[16:1],4h[16:1]/3,4h[16:1],
{16}4h[16:1]/2,,4h[16:1],1,4h[16:1],,4h[16:1]/8,,
{8}8h[16:1]/4,8h[16:1],8h[16:1]/4,8h[16:1],
{16}8h[16:1]/5,,8h[16:1],6,8h[16:1],,8h[16:1]/7,,
{8}7h[16:1]/8,7h[16:1],7h[16:1]/8,7h[16:1],
{16}7h[16:1]/1,,7h[16:1],2,7h[16:1],,7h[16:1]/3,,
{8}3h[16:1]/7,3h[16:1],3h[16:1]/5,3h[16:1],
{8}34,,
{4}4x^1[8:1]/8x-5[8:1],4bx-7[8:1]/8bx-4[8:1],4x/8x-3[8:1]*-5[8:1],
{16}8x,,,2x/6x,,,7x/1x,,
{16}8-3>6[8:2],,,3,,,4,,5^2[8:1],,,,
{8}1,8,
{4}7pp7[4:1],4/7qq7[4:1]b,
{16}3,,,2,,,1,,
{8}8-4[8:1],7-5[12:1],8,7,4xw8[8:1]b,,,,
{4}8x/2x-4[8:1],8/2,
{16}8/4x-1[8:1],,,8,4,,8,,
{16}8/1x-5[8:1],,,8,1,,8,,
{4}5xw1[8:1]b,,
{4}1x/7x-5[8:1],1/7,
{16}1/5x-8[8:1],,,1,5,,1,,
{16}1/8x-4[8:1],,,1,8,,1,,
{8}2,3,4-8[8:1],,
{16}7x^4[8:1],,,1,,,2,,
{16}3x^8[8:1],,,5,,,6,,
{8}7-4[8:1],8-3[8:1],7,8,4-8[8:1],,,,
{16}2x^5[8:1],,,8,,,7,,
{16}6x^1[8:1],,,4,,,3,,
{8}2-5[8:1],1-6[8:1],2,1,5-1[8:1],,,,
{4}8^2v5[4:3],,,,4v2^7[4:2],,,,
{16}2x,6x,2x,,35,,35,,4x,4x,4x,4x,4x,4x,4x,4x,
{8}4,35,26,17,8v5[8:1]*v3[8:1],,,,
{4}2-5[8:1]/4-8[8:1],2/4^1[8:1],
{16}4x^7[16:1],,,4x-8[16:1],,,4x,,
{4}7h[4:1],
{16}8,1,2,3,
{16}4h[8:1]/8h[8:1],,,1h[8:1]/5h[8:1],,,26,,
{4}2-7[8:1]/6-3[8:1],26,
{16}4h[8:1]/5h[8:1],,,3h[8:1]/6h[8:1],,,
{24}28,3x,4x,
{16}5x,,,
{32}87,6x,
{16}5x,,,
{32}18,2x,
{16}3x,7x,3x,7x,
{4}4x^1[8:1]/8x-5[8:1],4b-7[8:1]/8b-4[8:1],4x/8x-3[8:1]*-5[8:1],
{16}8x,,,2x/6x,,,1x/7x,,
{16}8-4V61[8:2],,,4,,,3,,
{4}2-5[8:1],
{8}1,8,
{4}7-4[8:1]/4-8[8:1],4/7^2[8:1],
{16}7/5q1[8:1],,,3x,,,4x,,
{8}5-2[8:1],1-6[8:1],5-1[8:1],1,5x,,
{8}1bx/5bx,2bx/6bx,
{4}3b-8[8:1]b/7b-4[8:1]b,37,
{16}1x^4[16:2],,,4xp8[8:1],1,,5x,,
{16}6x^1p5[16:4],,,1x,6,,2x,,
{4}3,
{8}3b/7b,2b/6b,
{4}1b-4[8:1]b/5b-8[8:1]b,15,
{16}4xp8[8:1],,,8^3[8:1],4,,7,,
{16}6xq2[8:1],,,2^7[8:1],6,,3,,
{8}4,5,6,
{8}7x-4[8:1],4x-8[8:1],3,2,
{8}1x-5[8:1],5x-2[8:1],8,7,
{8}6x-3[8:1],3x-5[8:1],2,1,
{8}8x-4[8:1],4x-8[8:1],7,6,
{8}5x-2[8:1],2x-6[8:1],3,4,
{8}5x-1[8:1],1x-3[8:1],8,7,
{8}6x-1[8:1],1x-7[8:1],2,3,
{8}4x-8[8:1],8x-2[8:1],7,6,
{8}5x-1[8:1],1xV75[4:1],4,3,
{8}2x-4[8:1],4x-8-2[4:1],5,6,
{8}7x-5[8:1],5x-1-7[4:1],3,4,
{8}3x-5[8:1],5x-1-3[4:1],6,7,
{8}8x-5[8:1],5xV71[4:1],4,3,
{8}2x-5[8:1],5xV31[4:1],8,7,
{8}6x-4[8:1],4x-7-3[4:1],8,1,2,
{16}2h[8:1],,,1h[8:1]/3h[8:1],,,
{8}4x/8x-4[8:1],4x/8x,3,2,1x,
{16}1x-4[8:1],,1,8,1,,
{8}7x-4[8:1],7x,4,3,2x,
{16}2x-5[8:1],,2,1,2,,
{8}8x-4[8:1],8x,2,1,8x,
{16}8x-3[8:1],,8,7,8,,
{8}6x-1[8:1],6x,1,2,3x,
{16}3x-8[8:1],,3,4,3,,
{8}5x-1[8:1],7x/8x,1,2,3x,
{16}4x-8[8:1],,5,6,4,,
{8}7x-3[8:1],1x/2x,8,1,2x,
{16}3x-8[8:1],,4,5,3,,
{8}6x-1[8:1],7x/8x,2,3,4x,
{16}5x-1[8:1],,4,6,5,,
{8}7x,
{8}8x-4[8:1],1-5[8:1],8-6[12:1],1x-3[12:1],8x,1,
{16}5x,4x,5xs1[16:6]b,4xz8[16:5],
{4},,,,,,,,E
