&title=volcanic
&artist=LuzeriA
&first=0
&des=Tachi.mia
&lv_6=14+
&inote_6=(191){1},,,
{16}4x/5x,,3,6,5,6,4,5,
{8}3h[4:1],,1b-5[8:1],,
{8}4x,4,6,65,3,
{16}1,2,1,,18,,
{8}5x/4x,3,56,6,34,
{16}8,7,8,,81,,
{8}2x,21,8,81,3,
{16}5,4,5,,56,,
{8}7x,78,1,18,6,
{16}45,,6,5,6,,
{8}3x/4x,2,87,7-4[8:1],7,
{16}1,2,3<5b[8:1],,
{8}3xb,6,7,82,2-5[8:1],2,
{16}8,7,6>4b[8:1],,
{8}6xb,3,2,17,6-1[8:1],6,
{16}2,3,4v5b[8:1],,
{8}4xb,E7f/B7/B6,E1f/B8/B1,E3f/B2/B3,
{16}4xb,5xb,
{8}4xb,D8/D6f,D7/D1f,D8/D2f,3x,
{16}6,5,6,,34,,2,1,2,,
{8}18,18,6x/5x,
{16}3,4,3,,65,,7,8,7,,
{8}81,81,3x/4x,
{16}6,5,7,,18,,3,4,2,,
{8}45,45,2x/5x,64,47,35,18,
{16}3,,5,4,6,,2x-5[8:1],,3,4,2b,,6-8>1-5[4:1],,4,3,2,,2x,,2x,,
7x-4[8:1],,6,5,7b,,3-1<8-4[4:1],,5,6,7,,7x,,7x,,
{8}5xb,2xb/4xb,5xb/3xb,7xb/4xb,6xb/4xb,2xb/4xb,1xb/8xb,5xb/6xb,5xb/3xb,
{24}2,7,2,7,,,1xb/8xb,,,3xb/6xb,,,4,5,4,5,,,3xb/6xb,,,1xb-5<8b[1:3]/8xb-4>1b[1:3],,,,,,
{1}A7/A8/A1/A2/E8/E1f/E2/B7/B2,,,
{4},,,
2v4[4:1],2,8v6[4:1],8,1v3[4:1],1,7v5[4:1],7,3,
{8}4,45,6,65,18,18,34,
{16}2,5,3,4,2,5,5bh[4:1],,,,
{4}4-8[8:1],
{8}6>3[8:1],,1,1,2>5[8:1],,7,7,8<5[8:1],,3,3,4<7[8:1],8,1,2,3<6[8:1],,8,8,7<4[8:1],,2,2,1>4[8:1],,6,6,5>2[8:1],
{16},6,5,,
{8}1h[8:1],2>5[8:1],,7,7,6>3[8:1],,1,1,8>3[8:1],,5,5,4>1[8:1],,
{4}45,65,34,
{8}54,54,
{24}2,7,2,
{8}7,18,27,36,45,12,56,
{24}8,7,8,7,,,
{16}16,,2,3,4x,,8,7,6,,3,4,5x,,
{8}1/5-1[4:1],2,3,4,5-3[8:1],6,7,8-4[8:1],1,82,,
{16}1,2,3x,,7,6,5x,,2,3,4x,,
{8}17,83,82,16,18,18,45,45,
{16}83,,7,6,5x,,1,2,3,,6,5,4x,,
{8}8/4-8[4:1],7,6,5,4-6[8:1],3,2,1-5[8:1],8,17,,
{16}8,7,6x,,2,3,4x,,7,6,5x,,
{8}82,16,17,83,81,81,
{24}4,5,4,5,,,
{8}36,
{16}3,4,2,,5,6,7x,,1,8,2,,
{8}5v2[4:1]/2,8,7,6,5-7[8:1],4,3,2-5[8:1],1,28,,
{16}6,7,8x,,3,4,2,,7,6,5x,,
{8}18,18,13,28,17,68,54,54,24,
{16}2,1,3,,8,7,6x,,4,5,3,,
{8}1v6[4:1]/6,4,3,2,1-3[8:1],8,7,6-1[8:1],5,64,,
{16}2,3,4x,,8,1,7,,3,4,5x,,
{1}1z5[2:1]/7s3[2:1],
{16}84,3b/7b,
{8}26,1-5[8:1],3,8-4[8:1]/1,6,1-5[8:1]/8,2,18,
{16}8,7,6,,2,3,4,,
{8}87,16,25,
{24}3,4,3,
{8}4,18,18,65,54,34,45,18,18,
{16}1,8,1,8,2,7,2,7,3,6,4,,48,3b/7b,
{8}26,8-4[8:1],6,1-5[8:1]/8,3,8-4[8:1]/1,7,81,
{16}1,2,3,,7,6,5,,
{8}12,83,74,
{24}6,5,6,
{8}5,81,81,34,45,65,54,81,81,
{16}8,1,8,1,7,2,7,2,6,3,5,,51,6b/2b,
{8}37,18,34,1/8-4[8:1],65,1-5[8:1]/8,2,18,
{16}6,7,8,,2,3,4,,
{8}18,27,36,
{24}4,5,4,
{8}5,12,54,
{24}8,7,8,
{8}7,54,54,18,27,
{16}3,6,3,6,4,5,3,6,2,7,4,,48,3b/7b,
{8}26,81,65,8/1-5[8:1],34,8-4[8:1]/1,7,81,
{16}3,2,1,,7,6,5,,
{8}81,72,63,
{24}5,4,5,
{8}4,87,45,
{24}1,2,1,
{8}2,45,45,81,72,
{16}6,3,6,3,5,4,6,3,7,2,5,,
{24}3,4,3,4,,,1b,,,1,,,4,5,4,5,,,8b,,,8,,,6,5,6,5,,,7b,,,7,,,5,4,5,4,,,8b,,,8,,,
3,4,3,4,,,1b,,,1,,,4,5,4,5,,,8b,,,8,,,
{16}6,5,7,,18,,18,,4,5,3,,78,,78,,
{24}2,1,2,1,,,4b,,,4,,,1,8,1,8,,,5b,,,5,,,7,8,7,8,,,6b,,,6,,,8,1,8,1,,,5b,,,5,,,
2,1,2,1,,,4b,,,4,,,1,8,1,8,,,5b,,,5,,,
{16}6,7,8,,45,,45,,3,2,1,,43,,43,,
6,6,4,,3,3,5,,7,7,4,,2,2,5,,1,5,5,,8,4,4,,2,5,5,,7,4,4,,1,1,1x,,6,6,6x,,3,3,3x,,8,8,8x,,2,2,2x/4,,7,7,7x/5,,6,6,1,,8,1,26,,
{8}54,54,54,54,54,54,54,54,
5/4b,5b/4,5/4b,5b/4,5/4b,5b/4,5/4b,5b/4,
5xb/4b,5b/4xb,5xb/4b,5xb/4xb,5b/4xb,5xb/4b,5b/4xb,5xb/4b,
5b/4b,5b/4b,5b/4b,5b/4b,5b/4b,5b/4b,5b/4b,5b/4b,
{12}3b,3b,3b,1b,1b,1b,8b,8b,8b,6b,6b,6b,3xb/8xb,2b,1xb,8b/5b,6xb,7b,8xb/1xb,1b,2xb/4xb,2b,
{24}5xb,6xb,5xb,6xb,
{32}E2f,E3,E4,E5,E6,E7,E8,E1,E2,E3f,E4,E5,E6,E7,E8,E1,E2,E3,E4f,E5,E6,E7,E8,E1,E2,E3,E4,E5f,E6,E7,E8,E1,E2,E3,E4,E5,E6f,E7,E8,E1,E2,E3,E4,E5,E6,E7f,E8,E1,E2,E3,E4,E5,E6,E7,E8f,E1,
{4}5xbw1b[2:1],
{1}5b,
{8}34,,2,12,7,78,4,54,1w5b[4:1],,1,,,,,,
12,12,
8,34,34,
{16}6x,6x,
{8}45,45,1,1,26,3,48,
{16}5x,5x,
{8}16,7,83,
1h[16:1],
{8}25,3,48,56,12,43,
8,8,73,6,51,
{16}4x,4x,
{8}83,2,16,
8h[16:1],
{8}74,6,51,43,87,25,25,
{16}3,4,3,,25,,25,,3,4,3,,8,,47,,6,5,6,,47,,47,,6,5,6,,47,,3,,
2,2,1,,38,,38,,2,2,1,,4,,16,,7,7,8,,16,,16,,7,7,8,,16,,16,,
1,1,8,,7,7,2,,3,3,6,,5,5,4,,8,8,1,,2,2,7,,6,6,3,,4,4,56,,
{8}7,18,2,43,6,54,3,12,8,
{24}6,7,6,7,,,
{16}1b/5b,2b/6b,3b/7b,,18,,34,,56,,,,
3,3x,5,4,6,5,7,3x,4,4,3,5,2,6,3x,3,5,4,6,5,5,6x,4,5,3,4,3,6,5xh,
