&title=【野猫】文学者の恋文
&artist=doriko
&first=0.02
&des=霧雨魔理沙
&lv_5=13
&inote_5=(122)
{1},
{8},,,,,,,{24},4,3,
{1}2/6>7[8:4],
{2}6pp5[4:1],4-2[8:1]*-1[8:1],
{1}7/3<2[8:4],
{2}3qq4[4:1],{4}5,56,
{4}5h[8:1]/7,5h[8:1]/6,5h[8:1]/7,5h[8:1]/6,
{4}4h[8:1]/7,3h[8:1]/5,6/2qq3[4:1],,
{8}4,4,34,4,25,5,46,6,
{2}3h[4:2]/7h[4:2],{16},,4,5,3,6,2,7,
{8}1h[8:1],6,57,8h[8:1],3,24,1pp3[8:1],,
{4}6pp8[8:1]/1,2pp4[8:1]/6,7pp1[8:1]/2,3/7,
{8}8h[8:1],4,35,1h[8:1],5,46,8qq6[8:1],,
{4}2qq8[8:1]/8,7qq5[8:1]/2,1>4[8:1]*<6[8:1]/7,1,
{8}2h[8:1],4,56,7h[8:1],5,34,2pp4[8:1],,
{4}7pp1[8:1]/2,4w8[8:1]/7,4,{8}26,35,
{8}6b/4h[8:1],7-3[8:1],18,2h[8:1],,1,34,2,
{8}56,7/8<1[16:5],,3h[4:1]/8b,,,{16}7,6,5,,
{1}6h[4:3]/1pp1[2:1],8qq8[2:1]/3pp3[2:1],
{2}8-4[8:1]/3-1[8:1],1-5[8:1]/6-8[8:1],
{4}3>7[4:1]/1-5[4:1],,,{8}5,4,
{1}3h[4:3]/4q7[2:1],
{2}8v6[4:1]/4v2[4:1],{16},,3,5,4h[4:1],,,,
{8}7-5[8:1],7,1-3[8:1],1,8-4[8:1],8,2,1b>8[8:3]*<2[8:3],
{2},{16},,1,8,2,7,3,,
{4}5h[8:1]/6,5h[8:1]/8,4h[8:1]/5,4h[8:1]/1,
{16}34,,2qq3[4:1],4,,4,2,,,,,,5,,5,,
{8}34,4,14,4,45,5,58,5,
{16}5b/6b,,7qq8[4:1],4,,4,7b,,,,2,1,3,8,4,7,
{8}5-1[8:1],,75,6,5-1[8:1],4,35,2,
{4}2b>5[8:1]/8b<5[8:1],8b/2b-6[8:1],{16}26,,7,8,6,1,5,2q8[16:7],
{4}4p6[8:3],,,{16}1,2,3,4,
{8}56,47,34,25,57,48,1v4[8:1]*v6[8:1]/3,{16}2,8,
{2}1b,4bw8[8:1],
{16}17,,8,2,4h[8:1],,1,7,5-2[8:1],,3,,6-1[8:1],,8,,
{8}6,{16},3,{8}4>8[8:1],8<4[8:1],4/6h[4:1],,,{16}3,5,
{16}1h[8:1],,6,4,8h[8:1],,3,5,1-6[8:1],,7,,2-5[8:1],,4,,
{8}2,{16}7,7,{8}8-4[8:1],4V28[8:1]*V68[8:1],,,,6,
{8}5h[8:1]/7,8,5/7h[8:1],4,5>3[8:1]/7p1[8:1],{16}8,8,,,,,
{8}1/7h[8:1],2,1h[8:1]/7-3[8:1],6,1v4[8:1]*v6[8:1]/7,,,,
{16}7b/3b,,,12,3b/8b,,,78,1b/6b,,,1/2,3b/8b,,,7/8,
{8}1b/6bpp4[4:1],2,2,2,2h[8:1],{16}1,3,8,4,7,5,
{16}6h[8:1],,1,7,5h[8:1],,8,2,4<7[8:1],,6,,3>8[8:1],,1,,
{8}3,{16}6,6,{8}5V71[8:1],1V35[8:1],5/3h[4:1],,,{16}7,4,
{16}6h[8:1],,8,5,3h[8:1],,1,5,7<4[8:1],,5,,8>3[8:1],,2,,
{16}6b/8b,,,8b,1p4[8:1]*q6[8:1],,4b/6b,,1b,,,,2,8,3,7,
{8}4h[8:1]/6,7,3/5h[8:1],2,4>2[8:1]/6p8[8:1],{16}7,7,,,,,
{8}7/1h[8:1],6,8h[8:1]/2V46[16:3],3,26,,8,7,
{8}56,3,45,7,34,12,6/5q1[8:1]*p1[8:1],78,
{2}5b<4[8:3],{16},,,,{32}5,4,3,2,1,8,7,6,
{8}5bw1[8:1],,5,,37,2-4[8:1]/6-4[8:1],,2bqq2[4:1]/6bpp6[4:1],
{8},,,,45,3-1[8:1]/7-1[8:1],,3bpp3[4:1]/7bqq7[4:1],
{8},,,,18,2-4[8:1]/6-4[8:1],,2b/6bpp1[8:3],
{8},,2,,3,,{32}4,5,6,7,8,1,2,3,
{8}4bw8[8:1],,4,,62,7-4[8:1]/3-6[8:1],,7bV16[4:1]/3bV14[4:1],
{8},,,,54,6-1[8:1]/2-7[8:1],,6bV47[4:1]/2bV41[4:1],
{8},,,,81,7-4[8:1]/3-6[8:1],,7b/3bqq8[8:3],
{8},7,6,5,4h[4:1],,{16}2,4,3,5,
{8}4/6<2[4:1],,2q7[4:1],,,1,1,,
{8}8/2>6[4:1],,6p1[4:1],,,8,8,,
{8}7b-4[8:1]/8b-3[8:1],,,,2-5[8:1]/1-6[8:1],,,,
{8}78,1,8>2[8:1]*<6[8:1],2bv4[8:1]/6bv4[8:1],,,,,
{8}3b/5bqq4[4:1],,4q8[16:3],,,1,1,,
{128}2q8[4:1],6p8[4:1],,,,,,,,,,,,,,,{8},,,,8,8,,
{8}6b/2b-4[8:1],2,8-6[8:1],8,1-5[8:1],1,7,6bv3[8:1],
{8},2V46[8:1],2,4b,,{16}8,1,7,2,6,,
{1}3bV16[2:1]/7bV52[2:1],
{4}8q5[4:1],5-3[8:1]*-7[8:1],,1<6[8:1]/8>3[8:1],
{8}1b-4[8:2]/8b-5[8:2],,,,,,5,4,
{8}3,12,38,47,56,{16}7,8,6,1,5,2,
{8}4-8[8:1],,24,3,4-8[8:1],7,64,5,
{4}6b<1[8:1]/2b>5[8:1],2b/6b-3[8:1],{16}36,,2,1,3,8,4,7z3[16:7],
{4}5s1[8:3],,,{16}8,7,6,5,
{8}43,52,65,74,42,51,8/6>3[8:1],{16}7,1,
{2}6bq3[8:1]*<2[8:1],{16}4b/5b,,,6b/8b,,,1b/3b,,
{16}1b/8b,,1,7,5h[8:1],,8,2,4-8[8:1],,6,,2-6[8:1],,4,,
{8}12,{16},8,{8}5<1[8:1],1>4[8:1]*q5[8:1],53,,,{16}6,4,
{16}8h[8:1],,3,5,1h[8:1],,6,4,8-4[8:1],,2,,6-2[8:1],,8,,
{8}56,{16}3,3,{8}8p4[8:1]*q4[8:1],4pp6[8:1]*qq2[8:1],,,,3,
{8}4h[8:1]/2,1,6/4h[8:1],8,4<7[8:1]/2qq8[8:1],{16}1,1,,,,,
{8}8/2h[8:1],4,6h[8:1]/8q4[8:1],4,8v5[8:1]/2v5[8:1],,,,
{16}7b/3b,,,16,2b/5b,,,38,4b/7b,,,16,2b/5b,,,3/8>6[4:1],
{16}4b/7b,,7,,7,,7,,7h[8:1],,8,6,1,5,2,4,
{16}3h[8:1],,8,2,4h[8:1],,1,7,5p1[8:1],,3,,7p3[8:1],,5,,
{8}78,{16}1,1,{8}4V28[8:1],8V64[8:1]*-4[8:1],4/6,,,{16}2,5,
{16}3h[8:1],,1,4,6h[8:1],,8,4,1q5[8:1],,3,,7p3[8:1],,1,,
{16}7b/3b,,,2b,6>3[8:1]*-3[8:1],,1b/8b,,6b,,,,7,1,6,2,
{8}5h[8:1]/3,1,7/5h[8:1],1,2pp4[8:1]/8qq6[8:1],{16}37,37,,,,,
{8}1/3h[8:1],4,8qq1[4:1]/6h[8:1],5,48,,2,3,
{8}46,8,17,2,34,18,6/5-1[8:1],23,
{2}4b>5[4:1],{16}8h[8:1],,,3h[8:1]/4h[8:1],,,56,,
{1}8bpp3[4:5]/4bpp7[4:5],
&inote_6=
