&title=スーサイドパレヱド
&artist=ユリイ・カノン; GUMI
&first=0
&des=我也要4吗
&lv_5=14
&inote_5=(176)
{16},,,,,,,E3/B3,,,E2/B1,,,,,,
{16}27,,27,,,,18,,7-1[8:1],,7,,4-2[8:1],,4,,
{16}5,,5,,,,2,,3-1[8:1],,3,,4-8[8:1],,4,,
{16}2,,2,,,,8,,7-5[8:1],,7,,3-8[8:1],,3,,
{16}4,,4>6[8:3],,,,2h[8:3],,,,,,,,,,
{16}35,,6,4,6,,7,,82,,3,,45,,36,,
{16},,2,4,2,,6,,7-4[8:1],,8,,7,,2,,
{16}35,,2,1,2,,3,,71,,6,,45,,36,,
{16},,2,8,2,,7h[8:4],,4,,,2,,,8,,
{16}64,,3,5,3,,2,,17,,6,,54,,63,,
{16},,7,5,7,,3,,2-5[8:1],,1,,2,,7,,
{16}64,,7,8,7,,6,,28,,3,,54,,63,,
{16},,7,1,7,,2,,5-8[8:1],,3,,5,,,,
{16}
{16}3h[8:1],,6,5,6h[8:1],,3,4,3h[8:1],,6,5,7h[8:1],,3,4,
{16}2h[8:1],,5,3,5h[8:1],,2,,43,,2,,18,,7,,
{16}6h[8:1],,3,4,3h[8:1],,6,5,6h[8:1],,3,4,2h[8:1],,6,5,
{16}7h[8:1],,4,6,4h[8:1],,7,,56,,37,,8-4[8:1]/1,,,,
{8}8/3,,2qq5[8:3],6,2,,4,4<7[8:1],
{8},8,1,2,3-5[8:1],6-4[8:1],3,6,
{16}2,,7,8,7,,2,1,2,,7,8,6,,2,1,
{16}3,8,3,8,2,1,3,8,2-5[8:1],,7-4[8:1],,2,,7,,
{8}3,5,2V83[8:3],4,2,,5,5<8[8:1],
{8},4,3,2,8-4[8:1],1-5[8:1],8,1,
{16}6,,3,4,2,,6,5,7,,3,4,1,,6,5,
{16}7,4,7,4,6,5,7,4,6-3[8:1],,3,,6,,,,
{8}2-5[8:1],2,4-7[8:1],4,8,8-4[8:1],,2qq7[8:3]/8,
{8},6,6,5,4-8[8:1],8,4,,
{8}3-8[8:1],3,7-4[8:1],7,1,1-4[8:1],,5pp1[8:3],
{8},2,3,4,5p1[8:1]*q1[8:1],8,5,,
{8}28,28,37,37,46,4>1[8:1]/6<1[8:1],,46,
{8},37,2-5[8:1]/6-1[8:1],37,26,,4h[8:2],,
{16}7,3,7,3,6,2,6,2,5,1,5,1,4,8,4,8,
{8}73,48,51,62,7w3[8:1]/3,,7b,,
{16}6-2[8:1]/1,,,,64,,,3,3,,1-4[8:1]*-6[8:1],,,,1,,
{16},,2,,73,,84,,5-2[8:1]/1-6[8:1],,,,5b/1b,,,,
{16}48,,7,5,6,,3-8[8:1]/4,,6,,7qq4[8:3],,,,71,,
{16},,1>4[8:1],,1<6[8:1],,,,,,2,,25,,7,,
{16}4-8[8:1]/8,,,,47,,,6,6,,1v4[8:1]/5v8[8:1],,,,15,,
{16},,37,,26,,15,,8-3[8:1]/4-7[8:1],,,,8b/4b,,,,
{16}26,,7,1,8,,4,6,5,,7,,68,,15,,
{16}2,4,3,4,2h[8:1],,5,4,6,3,7h[8:1],,5-1[8:1],,,,
{16}5b/7b-4[8:1],,,,78,,,2,2,,3-5[8:1]/6-2[8:1],,,,36,,
{16},,1,,48,,37,,2v4[8:1]/6v8[8:1],,,,2b/6b,,,,
{16}37,,6,4,5,,2,4,3,,8-4[8:1],,,,8/2qq4[8:3],,
{16},,5,,6,,7,,8,,5,,73,,6,,
{16}2-5[8:1]/5,,,,26,,,7,7,,8/5-1[8:1],,,,57,,
{16},,5,,48,,15,,2v3[8:1]/6v7[8:1],,,,2b/6b,,,,
{16}48,,48,,57,,6,,24,,3,,18,,27,,
{16}6,5,7,5,6h[8:1],,3,4,2,5,3h[8:1],,5h[8:2],,,,
{16}3h[8:1],,6,5,6,,4,,6h[8:1],,3,4,3,,5,,
{16}3h[8:1],,6,5,7,,4,,6h[8:1],,5h[8:1],,4h[8:1],,3,,
{16}6h[8:1],,3,4,3,,5h[8:1],,3h[8:1],,6,5,6,,4h[8:1],,
{16}6h[8:1],,3,4,2,,5h[8:1],,3h[8:1],,4h[8:1],,5h[8:2],,,,
{16}6h[8:1],,4,5,3h[8:1],,5h[8:1],,3h[8:1],,5,4,6h[8:1],,4h[8:1],,
{16}6h[8:1],,4,5,2h[8:1],,5h[8:1],,3h[8:1],,4h[8:1],,5h[8:1],,6h[8:1],,
{16}3h[8:1],,5h[16:1],4h[8:1],6h[8:1],,3h[8:1],,6h[8:1],,4h[16:1],5h[8:1],3h[8:1],,6h[8:1],,
{16}3h[8:1],,5h[16:1],4h[8:1],7h[8:1],,3h[8:1],,6h[8:1],,5h[8:1],,4h[8:1],,,,
(88)
{16}1V37[8:2]/8-4[8:1],,,,8,,,,5V74[8:2]*-2[8:1],,,,5,,,,
{24}1,2,3,8,7,6,2,3,4,7,6,5,4-7[8:1]/8V25[8:2],,,,,,4,,,,,,
{16}8-3[8:1]*V62[8:2],,,,8,,,,3,,4,,{24}6,5,7,4,,,
(176)
{16}17,,6,,45,,3,,28,,3,,45,,36,,
{16}2-6[8:1]/7,,2,,2/8-4[8:1],,8,,8/1-5[8:1],,1,,17,,,,
{16}46,,7,1,7,,2,1,3,4,2,5,1,6,8,,
{16},,7,5,6,,5,6,4,,7,5,84,,7,,
{16}46,,7,1,7,,2,1,3,4,2,5,1,6,8,,
{16},,7,5,6,,5,6,4,,3-8[8:1],,,,3/5,,
{16}6,,61,,2,8,2,,37,,6,4,6,,25,,
{16},,3,4,3,,6,,2h[8:1],,4h[8:1],,6h[8:1],,8h[8:1],,
{16}1,2,3,4,5,6,7,8,1/5,4,3,2,1,8,7,6,
{32}5/2,3,4,5,6,7,8,1,2,3,4,5,6,7,8,1,{8}2b,6b,3b,7b,
{16}4-6[8:1],,,,,,,,4-6[8:1],,,,3,,3,,
{16}4-6[8:1],,,,7,,7,,4-6[8:1],,,,3,,3,,
{16}7,,4,4,7,,5,5,6,,4,4,6,,5,,
{16}7,4,6,3,5,2,4h[8:4],,3,,3-1[8:1],,3,,3,,
{16}6-4[8:1],,6,,3,,3,,6-4[8:1],,6,,7,,7,,
{16}6-4[8:1],,6,,3,,3,,6-4[8:1],,6,,7,,7,,
{16}6,,6h[8:1],,5,,5h[8:1],,4,,4h[8:1],,3h[8:1],,8,2,
{16}7,4,6,3,5,2,4h[8:3],,1-5[8:1],,1,,1,,,,
{16}7-5[8:1],,7,,8-4[8:1],,8,,1,,1-5[8:1]*q6[8:1],,,,1,,
{16},,4-2[8:1],,4,,6-4[8:1],,6,,1,,1,,,,
{16}2-4[8:1],,2,,1-5[8:1],,1,,8,,8z4[16:2]*v5[16:2],,,,8,,
{16},,3q7[8:1],,7q3[16:2],,,,5,,6,,7,,,,
{16}8<6[8:1],,8,,5q1[8:1],,5,,4,,4<7[8:1]*>1[8:1],,,,4,,
{16},,8-3[8:1],,3-8[8:1],,8,,,,,,4h[8:1]/7,,,,
{16}28,,7,5,6,,3,4,2,,8,1,7,,4,5,
{16}3,,21,,78,,56,,4-2[8:1]/7-5[8:1],,,,4bpp7[8:26]*pp6[8:12],,,,
{16}3h[8:5],,,,,,,,,,,,,,2h[8:7],,,,,,,,,,,,,,,,,,
{16}1h[8:5],,,,,,,,,,,,,,2h[8:5],,,,,,,,,,5,4,6,,5,,3,,
{16}2h[8:2]/8,,,,7,3,7,3,8,,4,,3,5,2/6h[8:2],,
{16},,2,5,2,5,1,,4w8[8:1],,,,4,,,,
{16}6,,6,,4,,4,,5,,5,,3,,3,,
{16}7,5,7,5,6,,3,4,3,4,2,,1-5[8:1],,,,
{16}6b-2[8:1]/1b,,,,64,,,3,3,,1-4[8:1]*-6[8:1],,8,,1,,
{16},,2,,73,,84,,5>2[8:1]/1v6[8:1],,,,5b/1b,,,,
{16}48,,7,5,6,,3-8[8:1]/4,,26,,7qq4[8:3],,,,71,,
{16},,1>4[8:1],,1<6[8:1],,,,,,2,,25,,7,,
{16}4-8[8:1]/8,,,,47,,,6,6,,1v4[8:1]/5v8[8:1],,26,,15,,
{16},,37,,26,,15,,8v3[8:1]/4<7[8:1],,,,8b/4b,,,,
{16}26,,7,1,8,,4,6,5,,7,,68,,15,,
{16}2,4,3,4,2h[8:1],,5,4,6,3,7h[8:1],,5-1[8:1],,,,
{16}5b/7b-4[8:1],,,,78,,,2,2,,3-5[8:1]/6-2[8:1],,27,,36,,
{16},,1,,48,,37,,2v4[8:1]/6v8[8:1],,,,2b/6b,,,,
{16}37,,6,4,5,,2,4,3,,8-4[8:1],,,,8/2qq4[8:3],,
{16},,5,,6,,7,,8,,5,,73,,6,,
{16}2-5[8:1]/5,,,,26,,,7,7,,8/5-1[8:1],,7,,56,,
{16},,5,,48,,15,,2v3[8:1]/6v7[8:1],,,,2b/6b,,,,
{16}48,,48,,57,,6,,24,,3,,18,,27,,
{16}6,5,7,5,6h[8:1],,3,4,2,5,3h[8:1],,5-1[8:1],,,,
{16}5/4-8[8:1],,4,,47,,6,6,2-8[8:1],,7-4[8:1],,2,,7,,
{16}1,,25,,1-5[8:1],,7,,1w5[8:1],,,,1b,,,,
{16}73,,6,4,6,,3,,8,,7-5[8:1]/1-5[8:1],,62,,7pp5[8:3]/1,,
{16},,4,,3,,2,,1,,{32}1,2,3,,7-3[8:1],6,5,,1,,,,
{16}7/4-8[8:1],,4,,46,,5,5,1-4[8:1],,6-8[8:1],,1,,6,,
{16}5,5,,,4-1[8:1]/8-5[8:1],,37,,4b-7[8:1]/8b-3[8:1],,,,4b/8b,,,,
{16}2,8,2,8,3,6,3,6,4,7,4,7,38,,38,,
{32}12,,,,12,3,4,5,,,,,87,,,,87,6,5,4,,,,,27,,,,,,,,
{16}6,5,6,4,5,4,5,3,4,3,4,2,3-6[8:1]*-6[8:1],,1,,
{16}3b,,2,,2,,7,5,6,,3<6[8:1],,7,,3b,,
{16},,17,,6,,2,,{24}4,3,4,3,,,{16}2,,7,,
{16}83,,7,5,6,,1,4,2,,6-1[8:1],,2,,6b,,
{16},,2,4,3,,6,,7b/8b,,,4b/5b,,,1b/3b,,
{16}84,,6,5,7,,2,4,3,,6>3[8:1],,2,,6b,,
{16},,82,,3,,7,,{24}5,6,5,6,,,{16}7,,2,,
{16}16,,2,4,3,,8,5,7,,3-8[8:1],,7,,3b,,
{16},,7,5,6,,3,,{32}2b,3,4,5,6,7,8,1,2b/6b,,,,,,,,
{16}7,,1,8,1,,1,8,1,,1,6,1,,1,4,1,,1,3,1,,1,2-5[8:1],1,,,,1,,,,
{16}2,,8,1,8,,8,1,8,,8,3,8,,8,5,8,,8,6,8,,8,7-4[8:1],8,,,,8,,,,
{16}61,,8,7,8,,8,6,8,,8,5,8,,8,4,8,,8,3,8,,8,2-5[8:1],8,,,,8,,,,
{16}38,,1,2,1,,1,3,1,,1,4,1,,1,5,1,,1,6,1,,1,7-4[8:1],1,,,,1,,,,
{16}8,7,6/3b,5/2h[16:3],,,8,7,6/2b,5/3h[16:3],,,8,7,6/3b,52,,,
