&title=きらきら
&artist=湊あくあ
&first=0
&des=凡絵
&lv_5=13+
&inote_5=(182)
{1}
,
{2}
2h[4:1]/7h[4:9],2h[4:1],
{2}
2h[4:1],2h[4:1],
{24}
2,3,4h[6:13],,,,,,,,,,7h[4:1],,,,,,,,,,,,
{2}
7h[4:1],7h[4:1],
{24}
7,6,5h[6:13],,,,,,,,,,4h[4:1],,,,,,,,,,,,
{2}
3h[4:1],3h[4:1],
{24}
2,1,8-4[12:5],,,,A6,,,,,,A7,,,,,,8w4[8:1],,,,,,
{16}
,,,,,,,,3/5,,4,4,4,,3/5,,
{8}
2x>4[8:1],,C,,7<5[8:1],7,C,3>1[8:1],
{4}
,8h[8:1],7-3-6-4[8:3],,
{8}
1x>4[8:1],,E7,,8<5[8:1],8,B1,3>8[8:1],
{4}
,7h[8:1],6-8-5-1-4-2[8:3],,
{8}
7x>1[8:1],,C,,3<5[8:1],3,C,8<1[4:1],
{24}
,,,,,,C,,,8h[4:1],,,,,,1,2,3,4w8[2:1],,,,,,
{8}
,,,,,,2bx/6bx,B2/B6/Cf,
{8}
,,,,,6x,7x,8x,
{48}
A1,E2,E3,A3,,,,,,A8,B8,C,B4,A4,,,,,A7,E7,E6,A5,,,,,,,,,3x,,,,,,2x,,,,,,1x,,,,,,
{48}
A8,E8,E7,A6,,,,,,A1,B1,C,B5,A5,,,,,A2,E3,E4,A4,,,,,,,,,5x,,,,,,6x,,,,,,7x,,,,,,
{48}
4h[8:1]/8h[8:1],,,,,,,,,3h[8:1]/7h[8:1],,,,,,,,,2v5[8:1]/6,,5,,4,,,,,,,,6x,,,,,,7x,,,,,,8x,,,,,,
{48}
1h[8:1]/5h[8:1],,,,,,,,,4h[8:1]/8h[8:1],,,,,,,,,3v6[8:1]/7v2[8:1],,2/6,,1/5,,,,,,,,,,,,,,,,,,,,,,,,,,
{16}
3,6,3,6,E2,6,4,6,E1,6,5,6,E8,6,5,6,
{16}
4x,7,4,7,3x,8,3,8,2x,1,2,1z5>5b[16:17],2xs6<5[1:1]*s6<5[1:1],,,,
{1}
,
{8}
A5,B4,B8,A1,Ch[2:1],,,,
{8}
2>5[32:3],6<4[16:3],2,6h[8:2],,,7-5[8:1],8-4[8:1],
{24}
7,,,8>3[32:3],,,,,,,,,A4f,A5,A6,,,,,,,,,,
{8}
4-1[8:1],7-4[8:1],4,7,1>4[8:1],4<7[8:1],1,C,
{24}
8-6[8:1],,,1-5[8:1],,,8,,,1,,,A4f,A3,A2,,,,7,,,7hx[8:3],,,
{8}
,8hx[8:1],,1/6,2/5,,2,2hx[8:3],
{8}
,1hx[8:1],,3b/8,4b/7,,,,
{8}
1-3[8:1],6,1-7[8:1],6,1-4[8:1],6,1-6[8:1],6,
{24}
1,,,6,,,1,2,3,4,5,6,7,8,1,2/6,,,,,,,,,
{8}
7-5[8:1],4-1[8:1],7,4,,6-2[8:1],2-6[8:1],6,
{8}
3,3,,4-1[8:1],,B7/E7/E8,B7/E7/E8,,
{8}
2-5[8:1],8-5[8:1],2,8>3[8:1],,8-4[8:1],8-5[8:1],8-6[8:1],
{24}
,,,,,,,,,A4,A3,A2,,,,B7/E7/E8,,,1/B7/E7/E8,,,1hx[8:3],,,
{8}
,8hx[8:1],,2/7,3/6,,5,5hx[8:3],
{8}
,4hx[8:1],,3b/6,2b/7,,,,
{8}
1-3[8:1],8-4[8:1],1-5[8:1],8-6[8:1],1>4[8:1],8<5[8:1],1,8,
{24}
1,2,3,4/8,7,6,1/5,2,3,4,5,6,7,8,1,2/6,,,,,,,,,
{8}
4bh[32:3],3bh[32:3]/5bh[32:3],2bh[32:3]/6bh[32:3],1bh[32:7]/7bh[32:7],,8bh[32:19],1bh[32:3],2bh[32:3],
{24}
3bh[32:3],,,4bh[32:3],,,,,,2b/6b,A3/D3,A4/D4,A5/D5,,,,,,,,,4/7,,,
{8}
4bh[32:3]/7bh[32:3],3bh[32:3]/6bh[32:3],2bh[32:3]/5bh[32:3],1bh[32:7]/4bh[32:7],,8bh[32:19],7bh[32:3],6bh[32:3],
{24}
5bh[32:3],,,4bh[32:3],,,,,,1b/5b,2/6,3/7,4/8,,,,,,,,,4/8,,,
{8}
4bh[32:3]/8bh[32:3],3bh[32:3]/7bh[32:3],2bh[32:3]/6bh[32:3],1bh[32:3]/5bh[32:3],,8x,7x>2[4:1],6x,
{4}
2>5[4:1],5<8[4:1],8-2-4[4:1],4-7>2q6[2:1],
{8}
Cf,,,,4x>1[32:3],8x<2[16:3],4,8h[2:1],
{8}
,,,1,1h[2:1],,,8w4[8:61],
{1}
8b,
{4}
,A8,E1,E2,
{1}
A2,
{4}
,A8,E8,E7,
{1}
A6,
{1}
,
{1}
,
{1}
,
{8}
2h[8:1]/6<2<6[2:3],,3,,,3,,,
{8}
3,,,,3,4,5,,
{8}
4>8>4[2:3]/8h[8:1],,7,,,7,,,
{8}
7,,,,7,6,5,,
{8}
3h[8:1]/7<3<7[2:3],,2,,,2,,,
{8}
2,,,,2,1,8,,
{8}
1>4[4:3]/5h[8:1],,6,,,6,,,
{48}
A6,,A7,,A8,,,,,,,,,,,,,,,,,,,,5/7,,,,,,6,,,6,,,6,,,,,,5/7,,,,,,
{8}
4x>2[8:1],,C,,8<6[8:1],8,C,1>3[8:1],
{4}
,5h[8:1],6-4-7-3[8:3],,
{8}
1xq5[8:1],,B7,,8<5[8:1],8,B1,3>8[8:1],
{4}
,7h[8:1],6-8-5-1-4-2[8:3],,
{8}
7xv1[8:1],,C,,3v5[8:1],3,C,8<1[4:1],
{24}
,,,,,,C,,,8h[4:1],,,,,,7,6,5,4w8[2:1],,,,,,
{8}
,,,,,,2bx/6bx,B2/B6/Cf,
{8}
,,,,,6x,7x,8x,
{48}
1,2,3,4,,,,,,1,2,3,4,,,,,,D2,,D3,,D4,,,,,,,,3x,,,,,,2x,,,,,,1x,,,,,,
{48}
8,7,6,5,,,,,,8,7,6,5,,,,,,D8,,D7,,D6,,,,,,,,4x,,,,,,3x,,,,,,2x,,,,,,
{48}
1h[8:1]/5h[8:1],,,,,,,,,2h[8:1]/6h[8:1],,,,,,,,,3/7v4[8:1],,4,,5,,,,,,,,3x,,,,,,2x,,,,,,1x,,,,,,
{48}
4h[8:1]/8h[8:1],,,,,,,,,1h[8:1]/5h[8:1],,,,,,,,,2v7[8:1]/6v3[8:1],,3/7,,4/8,,,,,,,,,,,,,,,,,,,,,,,,,,
{8}
1/5,1h[8:5]/5h[8:5],,,,,,2/4,
{8}
,3-8[8:1],,3-6[8:1],,3-7[8:1],,3,
{8}
5h[8:7],,4,4,4x,4x,4b-2-8-6-4>5-3-1-7-5>4[4:7],4b,
{1}
4b,
{1}
Cf,
{8}
7h[8:1],4h[8:1],6h[8:1],3h[8:1],5h[8:1],2h[8:1],6h[4:1],,
{16}
5h[4:1],6,,,6h[4:1],5,,,4h[4:1],7,,,7h[4:1],4,,,
{16}
3h[4:1],4,,,4h[4:1],3,,,2h[4:1],5,,,5h[4:1],2,,,
{8}
1h[8:1],6h[8:1],2h[8:1],7h[8:1],3h[8:1],8h[8:1],2h[4:1],,
{24}
1,8,7,6,5,4,1,2,3,4,5,6,E1f,E8,E7,E6,E5,E4,E3,E2,E1,,,,
{8}
2-4[8:1],7-5[8:1],2,7,1-3[8:1],8-6[8:1],1,8,
{24}
2,3,4,5,,,7,6,5,4,,,1,2,3,4/8,7,6,5/A2/A3/D3f,,,A6/A7/D7f,,,
{8}
1b>4b[32:3],5b<3b[16:3],1b,5bh[8:1],,4x-1[8:1],6x,4x,
{8}
7,7-4[8:1],,7,,B1/E1/E2,B3/E3/E4,,
{8}
8q4[8:1],2v5[8:1],8<5[8:1],2,,4-7[8:1],3,2-5[8:1],
{8}
1,6v1[8:1],,6,,B2/E2/E3,7/B4/E4/E5,7h[2:1],
{48}
,,,,,,8h[8:1],,,,,,,,,,,,E2,E3,E4,,,,A1f,A2,A3,A4,,,,,,,,,3x,,,,,,2hx[2:1],,,,,,
{48}
,,,,,,1bh[8:1],,,,,,,,,,,,E8,E7,E6,,,,A8f,A7,A6,A5,A4,A3,A2,,,,,,,,,,,,,,,,,,
{8}
1-3[8:1],6,1-7[8:1],6,1-4[8:1],6,1-6[8:1],6,
{24}
1,,,6,,,1,2,3,4,5,6,7,8,1,2/6,,,,,,,,,
{8}
7<5[8:1],4v1[8:1],7,4,,6p2[8:1],2p6[8:1],6,
{8}
3,3,,4-1[8:1],,B8/E1/E8,B6/E6/E7,,
{8}
2v5[8:1],8q4[8:1],2,8>3[8:1],,8-4[8:1],8-5[8:1],8-6[8:1],
{24}
,,,,,,,,,A4,A3,A2,,,,B7/E7/E8,,,1/B5/E5/E6,,,1hx[8:3],,,
{48}
,,,,,,8hx[8:1],,,,,,,,,,,,A2,A3,A4,,,,A7f,A6,A5,,,,,,,,,,4,,,,,,4hx[8:3],,,,,,
{48}
,,,,,,5bhx[8:1],,,,,,,,,,,,A3,A2,A1,,,,A6f,A7,A8,,,,,,,,,,,,,,,,,,,,,,
{8}
1-3[8:1],8-4[8:1],1-5[8:1],8-6[8:1],1>4[8:1],8<5[8:1],1,8,
{24}
1,2,3,4/8,7,6,1/5,2,3,4,5,6,7,8,1,2/6,,,,,,,,,
{8}
3bh[32:3]/7bh[32:3],5bh[32:3]/6bh[32:3],2bh[32:3]/6bh[32:3],3bh[32:7]/4bh[32:7],,5bh[32:19],4bh[32:3],3bh[32:3],
{24}
2bh[32:3],,,1bh[32:3],,,,,,4b/8b,A1/A5/D1/D5,A2/A6/D2/D6,A3/A7/D3/D7,,,,,,,,,4/7,,,
{8}
4bh[32:3]/7bh[32:3],3bh[32:3]/6bh[32:3],2bh[32:3]/5bh[32:3],1bh[32:7]/4bh[32:7],,8bh[32:19],7bh[32:3],6bh[32:3],
{24}
5bh[32:3],,,4bh[32:3],,,,,,1b/5b,2/6,3/7,4/8,,,,,,,,,4/8,,,
{8}
4bh[32:3]/8bh[32:3],3bh[32:3]/7bh[32:3],2bh[32:3]/6bh[32:3],1bh[32:3]/5bh[32:3],,8bx,7bx>2b[4:1],6bx,
{4}
2b>5b[4:1],5b<8b[4:1],8b-2-4b[4:1],4b-7>2q6b[2:1],
{8}
Cf,,,,4x>1b[32:3],8x<2b[16:3],4,8h[2:1],
{8}
,,,1,1h[2:1],,,8w4[4:1],
{8}
8b,,,,2/6,,3,4,
{4}
,5/A3,6/E3,7/E2,
{8}
8/A1,,,,2/7,,6,5,
{4}
,4/A6,3/E7,2/E8,
{4}
1/A8,,2/7,1/6,
{4}
5/8,7h[4:1],5h[4:1],4h[4:1],
{8}
2-5[8:1],,2,7-4[8:1],,7-2[4:1],,7,
{24}
,,,,,,,,,D3f,D4,D5,D6,D7,D8,D1,D2,D3,D4,D5,,,,,
{8}
,,,,3/7-3-7[4:1],,2,1,
{4}
,8/A3,7/E3,6/E2,
{8}
5/A1f,,,,2-6-2[4:1]/6,,7,8,
{4}
,1/A6,2/E7,3/E8,
{4}
4/A8f,,1/5,4/8,
{4}
3/7,2h[4:1],4h[4:1],5h[4:1],
{8}
7-4[8:1],,7,2-5[8:1],,2-7[4:1],,2,
{24}
,,,,,,,,,5x/8x,4x/7x,3x/6x,2x/5x,,,,,,,,,1x/4x,2x/5x,3x/6x,
{24}
4x/7x-3b[4:5],6,7,8,1,2,3,,,,,,,,,,,,,,,,,,
{8}
,,,,,,1b/5b,3b/7b,
