&title=ワンルームシュガーライフ
&artist=《ハッピーシュガーライフ》OP
&first=0.018
&des=Tane
&freemsg=《ハッピーシュガーライフ》OP
&wholebpm=
&des_1=Tane
&des_2=Tane
&des_3=Tane
&des_4=Tane
&des_5=Tane
&lv_4=9
&lv_5=13
&inote_4=(180)
{1},,
{8}3qq6[2:1],,7,,
7,,7,,
{8}6pp3[2:1],,2,,
2,,2,,
{8}3qq7[2:1],,5,,
5,,5,,
{8}6pp2[2:1],,4,,
4,,4,,
{8}1z5[8:1]/8s4[8:1],,,,
6pp5[8:1],,,,
{8}5-8[8:1]/5-3[8:1],,,,
1-4[8:1]/7-4[8:1],,,,
{8}4^1[8:1],,7,,
8^5[8:1],,3,2,
{8}15,15,15,15,
1^4[8:1]/5^8[8:1],,,,
{16}8,7,6,51,
2,3,74,6,
5,,34,,
25,,16,,
{8}2-5[8:1],,7,7,
2-5[8:1],,8,8,
{8}2-5[8:1],,7,7,
2-5[8:1],2,6-4[8:1],6,
{8}1-5[8:1],,7,7,
1-5[8:1],,8,8,
{8}1-5[8:1],,6,6,
1-5[8:1],1,7-4[8:1],7,
{8}2^5[8:1],,7,7,
2^5[8:1],,8,8,
{8}2^5[8:1],,7,7,
2^5[8:1],2,8,8,
{8}7,8,1b/6b,,
2,1,3b/8b,,
{8}4,5,3b/6b,,
{16}4,3,2,15,
6,7,8,,
{8}4>5[4:3],,,,
,,4,,{8}4>5[4:3],,,,
,,4,,
{8}4>5[4:3],,,,
,,4,,{8}4>5[4:1],,,,
4>5[4:1],,,,
{8}4b,,26,,
7,8,7,8,
{8}6,,37,,
2,1,2,1,
{8}4,,27,,
1,8,1,8,
{8}2h[16:2]/7h[16:2],,3h[16:4]/6h[16:4],,
,45,45,45,
{16}3h[16:3],,,7,
1,,6h[8:1],,
3h[16:3],,,8,
2,,6,,
{16}3,4,2,,
6,5,7,,
2,4,1,,
7,,7,,
{16}7h[16:3],,,3,
5,,2h[8:1],,
7,8,7,,
6,,6,,
{16}3,2,1,8,
2,1,8,7,
1,8,7,6,
8,7,6,5,
{16}3,4,3,,
2-6[8:1],,2,,
7h[16:3],,,8,
7,,78,,
{16}6,5,6,,
7-3[8:1],,7,,
2h[16:3],,,1,
2,,21,,
{16}3,4,2,,
6,5,7,,
3,4,1,,
6,5,8,,
{8}13,13,28,28,
17,17,6/8>4[4:3],,
{8}8b/6,,6,,
8,,8<4[4:3],,
{8}8b/2,,2,2,
1,1,1,,
{8}3qq5[2:1]/6pp4[2:1],,,,
,,,,
{21}4,5,4,5,4,5,4,5,{16}4,,
,,,,
,,,,
{8}8z4[8:3],,5-1[8:1]/8,,
5-7[8:1],,,,
{8}8z4[8:3],,5-1[8:1]/8,,
5-7[8:1],,,,
{8}8h[8:3]/2,,7h[8:3],,
2h[8:3],,6h[8:3],,
{8}3h[8:3],,5h[8:2],,
4,,2-4[8:1]/7,,
{8}2/7-5[8:1],,2-5[8:1]/7,,
2/7-4[8:1],,2-4[8:1]/7,,
{8}2/7-4[8:1],,2-5[8:1]/7,,
2/7-5[8:1],,2-5[8:1]/7,,
{8}2/7-4[8:1],,2-4[8:1]/7,,
2/7-5[8:1],,2/7,,
{8}2-4[8:1]/7-5[8:1],,2-5[8:1]/7-4[8:1],,
,,36,,
{8}4-8[8:1]/5-1[8:1],,4b/5bpp5[8:4],,
1,,2,1-4[8:1],
{8},1/5pp5[8:5],,2,
1,,2,1-4[8:1],
{8},1/5pp5[8:5],,3,
2,,1,2pp1[8:3],
{8},,,,
,,18,,
{8}4-8[8:1]/5-1[8:1],,5b/4bqq4[8:4],,
8,,7,8-5[8:1],
{8},8/4qq4[8:5],,7,
8,,7,8-5[8:1],
{8},8/4-1[8:1],,5h[4:1],
,1,2,3,
{8}48,,,,
,,,,
{8},,,,
{16}1,8,27,,
27,,27,,
{8}7-4[8:1],,2,2,
7-4[8:1],,1,1,
{8}7-4[8:1],,2,2,
7-4[8:1],7,3-5[8:1],3,
{8}8-4[8:1],,2,2,
8-4[8:1],,1,1,
{8}8-4[8:1],,3,3,
8-4[8:1],8,2-5[8:1],2,
{8}7^4[8:1],,2,2,
7^4[8:1],,1,1,
{8}7^4[8:1],,2,2,
7^4[8:1],7,1-5[8:1],1,
{8}8-4[8:1],,2,2,
8-4[8:1],,1,1,
{8}8-4[8:1],,2,2,
8-4[8:1],8,2,2,
{16}3,4,2,,
1,,1,,
6,5,7,,
8,,8,,
{16}3,4,1,,
6,5,8,,
2,4,1,,
7,5,8,,
{16}8,7,61,,
1,2,38,,
18,,,27,
,,18,,
{8}1bv2[8:1]/8bv5[8:1],,,,
,,,,{8},,,,
,,,,{8},,,,
,,,,
{1},,,,,,,,
&inote_5=(180)
{1},,
{8}3qq6[2:1],,7,,
7,,7,,
{8}6pp3[2:1],,2,,
2,,2,,
{8}3qq7[2:1],,5,,
5,,5,,
{8}6pp2[2:1],,4,,
4,,4,,
{8}1z5[8:1]/8s4[8:1],,,,
6pp5[8:1],,,,
{8}5-8[8:1]*-3[8:1],,,,
1-4[8:1]/7-4[8:1],,,,
{8}4^1[8:1],,7,,
8^5[8:1],,3,2,
{8}15,15,15,15,
1^4[8:1]/5^8[8:1],,,,
{16}8,7,6,51,
2,3,74,6,
5,,34,,
25,,16,,
{8}2-5[8:1],,7,7,
2-5[8:1],,8,8,
{8}2-5[8:1],,7,7,
2-5[8:1],2,6-4[8:1],6,
{8}1-5[8:1],,7,7,
1-5[8:1],,8,8,
{8}1-5[8:1],,6,6,
1-5[8:1],1,7-4[8:1],7,
{8}2^5[8:1],,7,7,
2^5[8:1],,8,8,
{8}2^5[8:1],,7,7,
2^5[8:1],2,8,8,
{8}7,8,1b/6b,,
2,1,3b/8b,,
{8}4,5,3b/6b,,
{16}4,3,2,15,
6,7,8,,
{8}4>5[4:3],,,,
,,4,,{8}4>5[4:3],,,,
,,4,,
{8}4>5[4:3],,,,
,,4,,{8}4>5[4:1],,,,
4>5[4:1],,,,
{8}4b,,26,,
7,8,7,8,
{8}6,,37,,
2,1,2,1,
{8}4,,27,,
1,8,1,8,
{8}2h[16:2]/7h[16:2],,3h[16:4]/6h[16:4],,
,45,45,45,
{16}3h[16:3],,,7,
1,,6h[8:1],,
3h[16:3],,,8,
2,,6,,
{16}3,4,2,,
6,5,7,,
2,4,1,,
7,,7,,
{16}7h[16:3],,,3,
5,,2h[8:1],,
7,8,7,,
6,,6,,
{16}3,2,1,8,
2,1,8,7,
1,8,7,6,
8,7,6,5,
{16}3,4,3,,
2-6[8:1],,2,,
7h[16:3],,,8,
7,,78,,
{16}6,5,6,,
7-3[8:1],,7,,
2h[16:3],,,1,
2,,21,,
{16}3,4,2,,
6,5,7,,
3,4,1,,
6,5,8,,
{8}13,13,28,28,
17,17,6/8>4[4:3],,
{8}8b/6,,6,,
8,,8<4[4:3],,
{8}8b/2,,2,2,
1,1,1,,
{8}3qq5[2:1]/6pp4[2:1],,,,
,,,,
{21}4,5,4,5,4,5,4,5,{16}4,,
,,,,
,,,,
{8}8z4[8:3],,5-1[8:1]/8,,
5-7[8:1],,,,
{8}8z4[8:3],,5-1[8:1]/8,,
5-7[8:1],,,,
{8}8h[8:3]/2,,7h[8:3],,
2h[8:3],,6h[8:3],,
{8}3h[8:3],,5h[8:2],,
4,,2-4[8:1]/7,,
{8}2/7-5[8:1],,2-5[8:1]/7,,
2/7-4[8:1],,2-4[8:1]/7,,
{8}2/7-4[8:1],,2-5[8:1]/7,,
2/7-5[8:1],,2-5[8:1]/7,,
{8}2/7-4[8:1],,2-4[8:1]/7,,
2/7-5[8:1],,2/7,,
{8}2-4[8:1]/7-5[8:1],,2-5[8:1]/7-4[8:1],,
,,36,,
{8}4-8[8:1]/5-1[8:1],,4b/5bpp5[8:4],,
1,,2,1-4[8:1],
{8},1/5pp5[8:5],,2,
1,,2,1-4[8:1],
{8},1/5pp5[8:5],,3,
2,,1,2pp1[8:3],
{8},,,,
,,18,,
{8}4-8[8:1]/5-1[8:1],,5b/4bqq4[8:4],,
8,,7,8-5[8:1],
{8},8/4qq4[8:5],,7,
8,,7,8-5[8:1],
{8},8/4-1[8:1],,5h[4:1],
,1,2,3,
{8}48,,,,
,,,,
{8},,,,
{16}1,8,27,,
27,,27,,
{8}7-4[8:1],,2,2,
7-4[8:1],,1,1,
{8}7-4[8:1],,2,2,
7-4[8:1],7,3-5[8:1],3,
{8}8-4[8:1],,2,2,
8-4[8:1],,1,1,
{8}8-4[8:1],,3,3,
8-4[8:1],8,2-5[8:1],2,
{8}7^4[8:1],,2,2,
7^4[8:1],,1,1,
{8}7^4[8:1],,2,2,
7^4[8:1],7,1-5[8:1],1,
{8}8-4[8:1],,2,2,
8-4[8:1],,1,1,
{8}8-4[8:1],,2,2,
8-4[8:1],8,2,2,
{16}3,4,2,,
1,,1,,
6,5,7,,
8,,8,,
{16}3,4,1,,
6,5,8,,
2,4,1,,
7,5,8,,
{16}8,7,61,,
1,2,38,,
18,,,27,
,,18,,
{8}1bv2[8:1]/8bv5[8:1],,,,
,,,,{8},,,,
,,,,{8},,,,
,,,,
{1},,,,,,,,
