&title=ラストサテライト
&artist=tatto feat. 志国一路
&first=0
&des=Dororo feat. Love for 49216
&lv_5=13
&inote_5=(142)
{1},
{16}4qq5[1:1],,,,,,,,,,,,,,,,
{16}6pp4[1:1],,,,,,,,,,,,,,,,
{16}3qq7[1:1],,,,,,,,,,,,,,,,
{16}5h[4:3],,,,,,,,,,,,4,,,,
{16}5pp4[1:1],,,,,,,,,,,,,,,,
{16}3qq5[1:1],,,,,,,,,,,,,,,,
{16}6pp2[1:1],,,,,,,,,,,,,,,,
{16}1b,,,,,,,,,,,,,,,,
{16}3,,3,,4,,4,,5qq3[4:1],,5,,,,,,
{16}6,,6,,5,,5,,4pp6[4:1],,4,,,,,,
{16}3,,3,,4,,4,,5qq3[4:1],,5,,,,,,
{16}7,,6,,5,,4,,3,,2,,18,,,,
{16}2,,2,,4,,4,,5>1[4:1],,6,,,,,,
{16}7,,7,,5,,5,,4<8[4:1],,3,,,,,,
{16}2,,2,,4,,4,,5>1[4:1],,6,,,,,,
{16}5qq2[8:3]*pp8[8:3],,,,,,,,,,,,3-6[8:1]/6,,,,
{16}8h[4:1]/3,,,,,,65,,7,,7,,6/5^2[8:1],,,,
{16}8h[4:1]/5,,,,,,37,,2,,2,,3-6[8:1]/7,,,,
{16}8h[4:1]/3,,,,,,65,,7,,7,,6/5^2[8:1],,,,
{16}8qq4[8:3]/5,,,,1,,1,,,,3,,3/6-3[8:1],,,,
{16}1h[4:1]/6,,,,,,34,,2,,2,,3/4^7[8:1],,,,
{16}1h[4:1]/4,,,,,,62,,7,,7,,6-3[8:1]/2,,,,
{16}1h[4:1]/6,,,,,,34,,2,,2,,3/4^7[8:1],,,,
{16}1s5[4:1]/4,,,,8,,8h[8:3],,,,,,4,,,,
{16}5^3[8:1],,,,6,,6^3[8:1],,,,7,,7<3[4:1],,,,
{16}8h[4:1],,,,,,2h[16:3]/6,,,1,2,,38,,,,
{16}5^3[8:1],,,,2,,2^5[8:1],,,,6,,6>2[4:1],,,,
{16}7h[4:1],,,,,,1h[16:3]/5,,,8,1,,37,,,,
{16}4^6[8:1],,,,3,,3^6[8:1],,,,2,,2>6[4:1],,,,
{16}1h[4:1],,,,,,7h[16:3]/3,,,8,7,,61,,,,
{16}4^6[8:1],,,,7,,7^4[8:1],,,,3,,3<7[4:1],,,,
{16}2h[4:1],,,,,,18,,7,5,6,,45,,3,4,
{16}2pp5[2:1],,,,1,,,,8,,,,7,,,,
{16}6/5qq2[2:1],,,,7,,,,8,,,,1^6[8:1],,,,
{16}2pp5[2:1],,,,1,,,,8,,,,7,,,,
{16}6/5qq4[4:1],,,,7,,7,,,,5,,45,,,,
{16}7qq4[2:1],,,,8,,,,1,,,,2,,,,
{16}3/4pp7[2:1],,,,2,,,,1,,,,8^3[8:1],,,,
{16}7qq4[2:1],,,,8,,,,1,,,,2,,,,
{16}3/4pp5[4:1],,,,2,,2,,,,4,,5,5,4,,
{16}7h[4:1]/3,,,,1,,6,,4-6[8:1],,3,,8,,,,
{16}8h[4:1]/2,,,,1,,6,,4-1[8:1],,3,,8,,,,
{16}6h[4:1]/4,,,,1,,6,,4-6[8:1],,3,,8,,,,
{16}7h[4:1]/3,,,,1,,6,,4-1[8:1]*-6[8:1],,3,,,,,,
{16}2h[4:1]/6,,,,8,,3,,5-3[8:1],,6,,1,,,,
{16}1h[4:1]/7,,,,8,,3,,5-8[8:1],,6,,1,,,,
{16}3h[4:1]/5,,,,8,,3,,5-3[8:1],,6,,1,,,,
{16}2h[4:1]/6,,,,5,,37,,1,8,1,,7,2,6,3,
{16}4-1[8:1]/5b,,,,4,,7,,7-3[8:1],,,,78,,,,
{16}4-1[8:1]/5,,,,4,,7,,6-4[8:1]/8-2[8:1],,,,68,,,,
{16}4-1[8:1]/5,,,,4,,7,,7-3[8:1],,,,78,,,,
{16}4-1[8:1]/5,,,,8-2[8:1]/4,,6-4[8:1],,7-3[8:1],,,,,,,,
{16}5-8[8:1]/4,,,,5,,2,,3v6[8:1]/1v6[8:1],,,,31,,,,
{16}5-8[8:1]/4,,,,5,,2,,3p6[8:1]/1q6[8:1],,,,31,,,,
{16}5-8[8:1]/4,,,,5,,2,,3^6[8:1]/1^6[8:1],,,,31,,,,
{16}5-8[8:1]/4,,,,1pp1[4:1]/5,,,,,,,,8b,,,,
{16},,,,,,,,,,,,2-6[8:1]/E5/B4,,,,
{16}1-3[8:1]/2,,8,,1-6[8:1]/5,,5,,1,,3,,3-5[8:1]/5,,2,,
{16}8-3[8:1]/3,,7,,8-6[8:1]/5,,5,,8,,2,,2-6[8:1]/6,,3,,
{16}1-3[8:1]/2,,8,,1-6[8:1]/5,,5,,1,,3,,3-5[8:1]/6-2[8:1],,7,,
{16}36,,,,8-3[8:1],,3^8[8:1],,8V62[4:1],,,,4b,,,,
{16}3h[4:1],,1,,4h[4:1],,1,,3q8[8:1],,1,,4,,,,
{16}6h[4:1],,8,,4h[4:1],,8,,6q2[8:1]*p2[8:1],,8,,,,,,
{16}3h[4:1],,1,,4h[4:1],,1,,3q8[8:1],,1,,4,,,,
{16}6h[4:1],,8,,4h[4:1],,8,,6,5,6,,7-3[8:1]/3,,,,
{16}8^6[8:1]/7,,1,,8^3[8:1]/4,,4,,8,,6,,6-4[8:1]/4,,7,,
{16}1^6[8:1]/6,,2,,1^3[8:1]/4,,4,,1,,7,,7-3[8:1]/3,,6,,
{16}8^6[8:1]/7,,1,,8^3[8:1]/4,,4,,8,,6,,6-4[8:1]/3-7[8:1],,2,,
{16}63,,,,1-6[8:1],,6^1[8:1],,1V37[4:1],,,,5b,,,,
{16}6h[4:1],,8,,5h[4:1],,8,,6>1[8:1],,8,,5,,,,
{16}3h[4:1],,1,,5h[4:1],,1,,3p7[8:1]*q7[8:1],,1,,,,,,
{16}6h[4:1],,8,,5h[4:1],,8,,6>1[8:1],,8,,5,,,,
{16}3b-8[8:1]/7-4[8:1],,,,3/7bs3[8:1],,,,1bw5[8:1],,,,1b,,,,
{16}8^5[8:1]/2,,6,,28,,2,,4-7[8:1],,1,,14,,3,,
{16}8-5[8:1]/2,,6,,28,,2,,4^7[8:1],,1,,14,,3,,
{32}2bpp5[2:1]/8qq5[2:1],37,46,5,{16},,,,,,,,,,,,,,
{16}45,,7,,6,,57,,2,,3,,2-8[8:1]/4,,,,
{16}4-6[8:1],,4,,3-7[8:1],,3,,2-8[8:1],,2,,4-6[8:1],,,,
{16}3-7[8:1],,3,,2-8[8:1],,2,,4-6[8:1],,4,,3-7[8:1],,,,
{16}2-8[8:1],,2,,4-6[8:1],,4,,3-7[8:1],,3,,2,,,,
{16}18,,7,,3,,45,,6,5,7,,3,4,2,,
{16}1^4[8:1]/7,,3,,71,,7,,5-2[8:1],,8,,85,,6,,
{16}1-4[8:1]/7,,3,,71,,7,,5^2[8:1],,8,,85,,6,,
{16}1pp4[2:1]/7b,,1/7qq4[8:3],,,,,,,,,,,,,,
{16}45,,3,,2,,13,,6,,7,,6-2[8:1]/8,,,,
{16}1-7[8:1],,1,,5-8[8:1],,5,,2-6[8:1],,2,,7-1[8:1],,,,
{16}5-8[8:1],,5,,6-2[8:1],,6,,1-7[8:1],,1,,8-5[8:1],,,,
{16}2-6[8:1],,2,,7-1[8:1],,7,,5-8[8:1],,5,,6,,,,
{16}18,,2,,6,,45,,3,4,2,,6,5,7,,
{16}2b>8[2:3]/8b<2[2:3],,,,,,,,,,,,,,,,
{16},,,,,,,,,,,,,,,,
{16}2q5[2:1]/8h[4:3],,,,,,,,,,,,,,,,
{16}65,,7,,1,,34,,2,,8,,37,,,,
{16}3,4,3,,25,,3,4,3,,16,,7,8,7,8,
{16}6,5,6,,74,,6,5,6,,83,,2,1,2,1,
{16}3b,7,4,6,2,8,4,6,1,7,3,5,2,6,3,5,
{16}2,8,4,6,3,7,4,6,{32}8b-4[8:1],1,2,3,{16},,1b/8,,,,
{16}2/5h[4:3],,,,,,3h[4:1],,,,,,3,,,,
{16}3/4h[4:3],,,,,,2h[4:1],,,,,,2,,,,
{16}2/5h[4:3],,,,,,8h[4:1],,,,,,8v2[8:1],,,,
{16}8V64[4:1]*V24[4:1],,,,,,,,,,,,35,,,,
{16}7/4h[4:3],,,,,,6h[4:1],,,,,,6,,,,
{16}6/5h[16:23],,,,,,,,,,8h[16:9],,,,,,
{16},,,,,,,8,,,,1/4h[32:15],,,,,
{32},,,,,3,4,5,6qq3[1:2],,,,,,,,{16},,,,,,,,
{16},,,,,,,,,,,,,,,,
{16},,,,,,,,,,,,,,,,
{16},,,,,,,,,,,,,,,,
{16},,,,,,,,,,,,,,,,
E
