&title=夜の向日葵
&artist=松本文紀
&first=0.12
&lv_5=12+
&des=未知
&inote_5=
(82){48}E6,B5,{4},,,{16},,,{48},{1}E4,
{8},2qq7[2:1],{16},,,,,,,,,,,,,,,6qq3[8:5],
{1},{8}7,
5,4,2,7,5,
4,2,6,5,4,3,6,5,
4,3,{4}2>5[8:1],{8}1,8,{4}7>2[8:1],
{8}6,5,{4}4<7[8:1],4>1[8:1],4w8[8:1],
,1h[4:1]/8>3[8:1],,1h[4:1]/8>4[8:1],
,1/8>5[4:1],{2}2-6[8:1],
{4}7h[4:5],6<1[8:1],,6<2[8:1],
,6<3[4:1],{2}5-1[8:1],
{4}3/7<4[8:1],3h[4:1],7<3[8:1],2h[4:1],
7<4[8:1],3qq4[4:1],{2}7<1[4:1],
{4}5>2[8:1],6h[4:1],5>1[8:1],7h[4:1],
5>8[8:1],7<4[8:1],{2}2-5[8:1]*qq6[8:3],
{4},8b/1b,{16}6,5,7,4,{4}8<5[8:1]*>3[8:1],
8b,8b,{16}2-6[8:1],4,{8}3,{4}4<8[8:1],
,2/8,{16}5pp4[4:1],4,{8}6,{4}3h[4:1],
,2,{16}5>2[8:1],4,{8}6,{4}1<6[8:1],
,2h[4:1]/4h[4:1],,2h[4:1]/4h[4:1],
,2/4qq1[4:1],{2}8>4[4:1],
{8}5,6,{4}5h[4:1]/7h[4:1],,5h[4:1]/7h[4:1],
,5/7<4[8:1],{2}2qq7[4:1],
{4}6b>4[8:1],3h[4:1],6>4[8:1]*>4[8:1],3h[4:1],
6>4[8:1],1>5[8:1],{2}6p4[4:1],
{4}3>8[8:1],7h[4:1],3>8[8:1]*>8[8:1],7h[4:1],
3>8[8:1],7-4[8:1],{2}8pp3[2:1],
{8},,,,,,,3b/6b,
2b/7b,1b-4[8:1]/8b-5[8:1],{4}1b/8b,{8},{16}3,4,{4}2v5[8:1],
7h[16:1],6/4,{16}7<4[8:1],5,{8}8,{4}7/1-5[8:1],
1,1/8,{16}2,1,{8}2,{4}3h[8:1]/8h[8:1],
{16}7,5,{8}6,{4}7h[8:1]/5h[8:1],{16}3,4,{8}3,5/4,6b/3b,
7b/2b,1b-4[8:1]/8b-5[8:1],{4}8b/1b,{8},{16}6,5,{4}7v4[8:1],
2h[16:1],4/5,{16}4-8[8:1],5,{8}3,{4}4/2>6[8:1],
2,1/8,{16}7<4[8:1],1,{8}8,{4},{16}2-5[8:1],
4,{8}3,{4}7h[4:1],{8},{16}6,5,{4}4w8[4:3],
,,,,,{8}1<5[8:1],
8,{4}7h[4:1],{8}1<4[8:1],8,
{4}7h[4:1],{8}1<6[8:1],1,5>2[8:1],5,{4}1-5[8:1]*-4[8:1],
,{8}5>1[8:1],4,{4}3h[4:1],{8}5>8[8:1],4,
{4}3h[4:1],{8}5>2[8:1],5,1<6[8:1],1,{4}5w1[8:1],
,2>5[8:1],C,2>6[8:1],
C,2>7[8:1],6pp5[4:1],4p3[4:1],
,6<1[8:1],C,6<2[8:1],
C,6>3[8:1],{2}3q5[8:3]*qq4[8:3],
{4},8b/1b,{16}3,4,2,5,{4}1<6[8:1]*>4[8:1],
1w5[8:1],1,{16}5-8[8:1]*-7[8:1],4,{8}6,{4}5-2[8:1]*-3[8:1],
5b,7b/1b,{16}3>8[8:1],5,{8}4,{4}6>3[8:1],
2-6[8:1]*-5[8:1],2b,{16}3<6[8:1],6,{8}3,{4}6>3[8:1],
,8b/1b,{16}4,5,3,6,{4}2-6[8:1],
7-3[8:1],1,{16}1,8,2,7,{4}4>1[8:1]/5-1[8:1],
5<8[8:1]/4-8[8:1],5/4,{16}4,5,3,6,{4}2v5[8:1],
(74)7<3[8:1],1,(75){32}8/2,{16},,,{32}3/7,(74),4qq5[8:3]/6q8[8:3],
E
