&title=The Eye
&artist=白鲨JAWS/鱼麦扣
&first=0
&des=wzzy
&lv_5=12+
&inote_5=(110)
{1},,
{4},,,,
{8}3,3,,5,5,,6/4>1[8:2],6/4,
{8},5,5qq2[4:2],,B6,,B8,,
{8}8,8,,2,2,,1/7<4[8:2],1/7,
{8},3,3pp6[4:2],,B2,,B8,,
{8}7h[8:2],,6h[8:2],,5h[8:2],,4h[8:2],,
{8}3-6[8:5],,,,,,,,
{8}Ch[8:8],,,,7-2>3-6<7[8:8],,,,
{8},,,,,,,,
{8}1,2,5/3,6,3qq7[8:2],4,5x,,
{8}6,5,3/4,2,7h[8:2],5,4xpp6[8:1],,
{8}E2,,1/5,2,5qq1[8:2],6,7x,,
{8}8,7,2/6,3,4/6q3[8:1],3,{16}D2,D1,D8,,
{8}5h[8:2],4,4,3h[8:2],4,4,6-2[8:1],,
{8}2-4[8:1]*-8[8:1],,,,7-1[8:1]*-5[8:1],,,,
{8}6h[8:2],5,5,4h[8:2],5,5,7h[8:2],5,
{8}2qq5[8:2],,4,6,,8,8h[8:2],,
{8}4,4,4/6q2[8:1],4,3h[8:12],,1<5[8:1],,
{8},,4>8[8:1],,,,B7,,
{8}5,5,5/3p7[8:1],5,6h[8:12],,8-4[8:1],,
{8},,1-3[8:1],,,,B2,,
{8}4,5,4-1[8:1]/6,2h[8:11],,,8-5[8:1],,
{8},,4>1[8:1],,,,8<5[8:1],,
{24}1x,2x,3x,4xh[8:6],,,{4},,{8},Ch[8:4],
{8},,,{32}A3,E3,E2,A1,{8},{32}A6,E7,E8,A8,{8},{32}Ch[8:1],,,,
{8}E1f,,7,2h[8:2]/1,4,8h[8:2],5-2b[8:1],2-6b[8:1],
{8}8,7<3<6[8:3],8,8>3[8:1],,,,7h[8:1],
{8}Cf,,6,3h[8:2]/4,1,5h[8:2],7-4[8:1],4-8[8:1],
{8}7,3,2p2[8:2],8<3[8:2],2x,8x,,1h[8:1],
{8}Cf,,7qq8[8:2],8,1,2>6>3b[8:3],3,1<6b[8:1],
{8},,,2h[8:2],8,7<3<6b[8:3],6,8>3b[8:1],
{8},,,7p5[8:3],,,4,3,
{8}2,2h[8:1],4,4h[8:1],6,6h[8:1],8,8h[8:1],
{8}B3f/B2,,7,3h[8:1]/4,1,6h[8:2],5,7,
{8}1h[8:2],4,7q1[8:3],{32}A2,A3,A4,,,,,,E3,E4,E5,,,,,,5xh[8:2],,,,
{8}2x,8x,6h[8:2],7,1,3h[8:2],A2/E2,7,
{8}5h[8:2],4,7,2p8[8:3],{32}A7,A6,A5,,,,,,E7,E6,E5,,,,,,
{8}4xh[8:2],6,8,1h[8:3],4,5<1<6b[8:3],6,4>1[8:1],
{8},,,7h[8:2],5,4>8>3b[8:3],3,5<8qq4[8:4],,,,2,2,3,3h[8:2],,5-8[8:1],5,4-1[8:1],4,6<3[8:4],
