&title=ネリと琥珀糖
&artist=sasakure.UK
&first=0
&des=おにねこ
&wholebpm=170
&lv_5=14
&inote_5=(170){1},
{2},,
{16}
6,,5,,3,,
4,,6h[1024:1],,5,,
4,,6,5,4,,6,,5,,4,,6,,,,
3,,4,,6,,
5,,3h[1024:1],,4,,
5,,3,4,5,,3,,4,,5,,2h[8:2],,,,
7,,6,,3,,
4,,6h[1024:1],,7,,
6,,4,3,2,,5,,7,,6,,3,,2,,
1h[8:2]/4h[8:2],,,,,,7h[8:2]/4h[8:2],,,,,,
2h[8:2]/4h[8:2],,,,,,4h[8:2]/6h[8:2],,,,,,
3/4,,,,45,,{24}6,5,4,{8}3pp6[16:16],,,,,,,,
2h[16:12],,,,6h[8:2],,,
{16}2,4,3,,6,,7,,4,,3/5h[1024:1],,2-4[32:3],,,,
8V64[16:4]/2,,,,4,,3,,2-6[8:1],,,,2,,7h[8:2],,,,
3h[8:2],,5,,6h[8:2],,5,4,3-1[8:1],,5V73[32:7],,3,,5,,,,
1-6[32:4],,2,,1-4[32:4]/3,,,,81,,,,
7,5,6,,3,,2,,5,,6/4h[1024:1],,7V15[32:8],,,,7/5-3[64:7],,,,
3,,2,,1s5[8:2],,,,5,,6,,,,
7/4,,8,,1,,2/5,,1,,8,,7q4[8:6]/2p5[8:6],,,,,,,,,,,,,,,,,,,,
5h[8:1],,4h[8:1],,6,5,7,,4-8[16:2],,3qq7[8:7],,2,,,,,,,,,,,,,,,,,,,,
4h[8:1],,5h[8:1],,3,4,2,,5-1[16:2],,6pp3[8:7],,7,,,,,,,,,,,,,,,,,,,,
{8}
6h[8:2],5,4h[1024:1],3,6,5,4,3,
7h[8:2],5,4h[1024:1],3,6,5,4,3,
6h[8:2],5,4h[1024:1],3,6,5,4,3,
7h[8:2],5,4h[1024:1],3,6,5,4,3,
{16}
6b,7,8,1,5,6,7,8,3,2,1,8,
4b,3,2,1,6,7,8,1,5,6,7,8,
4b,5,6,7,2,3,4,5,1,8,7,6h[16:4],
5b,4,3,2,7,6,5,4,1,2,3,4h[8:1],
5b,6,7,1,2,3h[16:2],6b,7,8,2,3,4h[8:1],
8b,7,6,4,3,2h[16:2],7b,6,5,3,2,1h[16:2],
5b,6,7,8,1,2,3b/6b,7,8,1,2,3,
{24}6b,5,4,3,2,1,8,7,6,5b,6-2[32:4],7,8,1,2,3,4,5,{16},,,,
3,4,2,4,1-6[32:4],,6<4[32:8],,1,,4,,,,5,6,7h[8:1],,
5,8,4,7,3h[8:1],,4,2,5,3,6h[8:1],,5,6,4,5,3h[8:1],,
4-2[32:3],,6V48[32:7],,4,,6,,,,3,2,1h[16:3],,
4,3,2,1,8,,5pp5[8:2],4,3,2,,,,,
1,2,3,4,7-3[32:4],,3>5[32:8],,7,,5,,,,4,3,2h[8:1],,
4,1,5,2,6h[8:1],,5,7,4,6,3h[8:1],,4,3,5,4,6h[8:1],,
5<8[32:4],,3V52[32:7],,5,,3,,,,6,7,8h[16:3],,
5,6,7,8,1,,4qq4[8:2],5,6,7,,,,,
8,7,6,5,1-4[8:1],,6-1[8:1],,1V74[32:7],,6,,,,3,2,1,,
7,8,6,8,7,,3,1,4,1,3,,6>3[8:1],5,7,5,6,,
1V74[32:7],,2V83[32:7],,1,,2,,,,7,6,5,,
3,4,2,4,3,,6pp6[8:2],5,7,5,6,,,,
5,4,3,2,
1b/8b,,6h[8:1],,3,4,2b,,65,,34,,
8b/1h[8:1],,6,,3/4,,7b-3[8:1],,65,,4,,
1b,,2h[8:1],,7,5,6b,,34,,65,,
1b/8h[8:1],,3,,6/5,,2b-5[8:1],,3/4,,6,,
8s4[16:6],,,,,,4,,,,,,8s4[16:7],,,,,,4,,,,,,8b,,8/4b,,,,
{16}4,5,3h[8:2],,6,,7,,35,,6/4h[1024:1],,7<3[32:6],,,,
8,,,,1>6[32:8],,5,,1,,,,,,8-5[16:2],,,,
5,,4,,3h[8:1],,4,3,5-8[8:1],,2-5[8:1],,5qq1[32:13],,2,,,,
8,,7,,6<1[16:2],,,,2,,,,
4,4,6h[8:2],,3,,2,,64,,3/5h[1024:1],,2q6[32:5],,,,2/6>8[32:10],,,,
8,,7,,6>3[32:4],,,,2,,1h[8:3],,,,
3,,4,,51,,6,,57,,4,,3h[8:2]/8,,,,
4h[1024:1],,4/3h[1024:1],,2h[1024:1]/4,,4/1h[1024:1],,
8/4h[1024:1],,8h[1024:1]/5,,8/6h[1024:1],,8h[1024:1]/7,,
1,8,2,7,3,6,4,6,5,6,7,6,8z4[16:9],5s1[8:4],1,
4,,,,,,,,,,,,,,,,,
{8}
7h[8:2],1h[8:4],,8h[8:4],,,,1-7[16:3],,,5-1[32:6],,,3v4[16:4],,,
8h[8:5],,,1q5[16:5],,,,6h[8:3],,,5,,45,,,,
7h[8:2],5h[8:4],,6h[8:4],,,,3<6[8:2],,,8p6[8:4],,,3,,,
1s5[16:13]*z5[16:13],,,,,,,,,,5pp5[8:2],,4b,,
{16}1,2,3,4,
5<8[16:2]/6,,3qq4[32:8]/4,,5,,3,,,,5,6,7h[8:1],,
1,8,3,4,2h[8:1],,7,8,4,3,6h[8:1],,4,5,3,4,2,,
8<5[32:4]/1,,4-8[16:2],,8>3[16:2],,4,,,,7,6,5h[8:2],,
1,2,3,4,51,,5/1pp1[8:2],84,37,62,51,,,,
{16}8,7,6,5,
4-1[32:4]/3,,6pp4[32:8]/5,,4,,6,,,,3,2,1h[8:1],,
8,1,6,5,7h[8:1],,2,1,5,6,3h[8:1],,5,4,6,5,7,,
1-4[32:4]/8,,5-1[16:2],,1-6[16:2],,5,,,,2,3,4h[8:2],,
8,7,6,5,48,,4qq5[32:10]/8qq1[32:10],15,62,37,,,,,,,,,
3h[8:2],,5,,6h[8:2],,
4,,3h[1024:1],,5,,
7,,4,5,2,,8V26[8:2],,4-6[16:2],,3,,,,,,
7h[8:2],,4,,2h[8:2],,
5,,6h[1024:1],,4,,
2,,5,4,7,,1-7[16:2],,5V37[16:4],,6,,,,,,
1h[8:2],,6,,8h[8:2],,
3,,2h[1024:1],,5,,
7h[8:1],,4,6,2,,34,,2h[8:1],,1h[8:1],,8z4[8:9],,7,,
1b,,,,,,7b,,,,,,
2b,,,,,,6h[8:3],,,,,,
{24}3,4,5,{8}6qq3[8:10]*qq5[32:23],,,,,,,,
