&title=R.I.P.
&artist=eicateve
&first=0
&des=Hanario
&lv_5=14
&inote_5=(192){1},
{8}4h[8:1]/3h[4:1],,,4h[8:1]/5h[4:1],,,6h[8:1]/4h[4:1],,
{8},3h[8:1]/5h[4:1],,,2-4[8:1],,4,,
{8}5h[8:1]/6h[4:1],,,5h[8:1]/4h[4:1],,,3h[8:1]/5h[4:1],,
{8},6h[8:1]/4h[4:1],,,7-1[8:1],,1,,
{8}2h[8:1]/8h[4:1],,,7h[8:1]/1h[4:1],,,2h[8:1]/4h[4:1],,
{8},6h[8:1]/4h[4:1],,,3-5[8:1]*-1[8:1],,3,,
{8}7h[8:1]/8h[4:1],,,2h[8:1]/8h[4:1],,,7h[8:1]/5h[4:1],,
{8},3h[8:1]/5h[4:1],,,6-4[8:1]*-3[8:1],,6,,
{8}2h[4:1],4h[8:1],,3h[4:1],5h[8:1],,4h[4:1],6h[8:1],
{8},5h[4:1],7h[8:1],,6-1[8:1],6,8,,
{8}2h[4:1],8h[8:1],,1h[4:1],7h[8:1],,8h[4:1],6h[8:1],
{8},4h[4:1],7h[8:1],,3-5[8:1],3,5,,
{8}7h[4:1],1h[8:1],,8h[4:1],2h[8:1],,1h[4:1],3h[8:1],
{8},5h[4:1],2h[8:1],,5-3[8:1],6,7,,
{8}12,12,34,34,56,56,78,78,
{16}2,1,3,8,2,1,3,8,{32}2b,3,4,5,6,7,8,1,2,3,4,5,6,7,8,1,
{8}5,5-1[8:1],5,8-4[8:1],,5-1[8:1],,8-4[8:1],
{8},5,,35,{16}3,2,1,8,4,5,6,7,
{8}1,1-5[8:1],4,4-8[8:1],,1-5[8:1],,4-8[8:1],
{8},1,,71,{16}1,2,3,4,51,8,7,6,
{8}15,2-7[8:1],2,6-3[8:1],,2-7[8:1],,6-3[8:1],
{8},2-7[8:1],,5,{16}5,6,7,8,51,4,3,2,
{16}17,,8,,7h[8:1],,8,6h[8:1],,1,7h[8:1],,2,1,2,8,
{8}3b,4b/6b,3b/7b,4b/6b,{16}4b-6[8:1],3,{8}2b,4b,1b,
{8}6,5-7[8:1],4,4,,5/6-8[8:1],3,3,
{8},6/7-1[8:1],2,2,{16}2,3,4,5,8,7,6,5,
{8}84,8-2[8:1],7,7,,8/1-3[8:1],6,6,
{8},1/2-4[8:1],5,5,{16}5,6,7,8,2,3,4,5,
{8}68,8^5[8:1],2,1,,8^5[8:1]/3,2,1,
{8},8^5[8:1]/3,2,1,{16}1-6[8:1],2,3-6[8:1],,,,,,
{16}8h[8:1],,4,,5h[8:1]/3,,,4,6h[8:1],,1,,7h[8:1],3,,,
{12}8,2h[1024:1],4,6h[1024:1],8,3h[1024:1],7,5h[1024:1],5h[1024:1],{16}8,7,6,5,
{8}8-4[8:1]/4,8/4-8[8:1],,5V74[4:1],5,,3V14[4:1],3,
{16},,6h[16:1],,6,,3,,3,,2h[16:1]/1h[16:1],,12,,38,,
{8}6h[16:1],6,35,46,5^7[8:1],,3,2,
{8}1,8h[16:1],8,27,6h[8:1],5,3h[8:1],4,
{8}7-3[8:1]/3,7/3-1[8:1],,4V26[4:1],4,,5V73[4:1],5,
{16},,2h[16:1],,2,,6,,6,,7h[16:1]/8h[16:1],,87,,61,,
{8}3h[16:1],3,64,53,4-2[8:1],,6,7,
{8}8,1h[16:1],1,72,3h[8:1],4,6h[8:1],5,
{16}3-8[8:1],4,3,,,,7-3[8:1],6,7,,,,2-5[8:1],1,2,,
{8},8h[16:1],8,2,3,4h[16:1]/6h[16:1],46,5,
{8}3h[16:1],3,64,53,4^2[8:1],5,6,7,
{8}8,1h[16:1],1,72,3,3h[16:1],6,4h[16:1],
{16}5-1[8:1],4,5,,,,2-6[8:1],3,2,,,,7-4[8:1],8,7,,
{8},1h[16:1],1,7,6,5h[16:1]/3h[16:1],53,4,
{8}6h[16:1],6,35,46,5^7[8:1],4,3,2,
{8}1,8h[16:1],8,27,6,6h[16:1],3,3h[16:1],
{8}7s3[4:2]/2h[1:1],,,,,,,,
{8}7s3[4:2],,,,,,,,
{8}7s3[4:2]/4h[1:1],,,,,,,,
{8}7s3[4:2],,,,,,,,
{8}7s3[4:2]/1h[1:1],,,,,,,,
{8}7s3[4:2],,,,,,,,
{8}7s3[4:2]/5h[1:1],,,,,,,,
{8}7s3[4:2],,,,,,,,
{8}7s3[4:2],3,4,5,,2,1,8,
{8}7s3[4:2],8,1,2,,4,4,5,
{8}7s3[4:2],4,3,2,,2,1,8,
{8}7s3[4:2],8,1,1,,4,4,5,
{8}7s3[4:2],3,4,5,,2,1,8,
{8}7s3[4:2],8,1,2,,4,4,5,
{8}7s3[4:2],4,3,2,,2,1,8,
{8}7s3[4:2],8,1,1,,4,4,5,
{8}7s3[4:3],,,,,,,,
{8},7s3[4:3],,,,,,,
{8},,7s3[4:3],,,,,,
{8},,7s3[4:3],,,,,,
{8},,,7s3[4:4],,,,,
{8},,,,7s3[4:4],,,,
{8},,,,,7-2[4:4],,,
{8}6-3[8:39],,,,,,,,
{8},,,,,,,,
{8},,,,,,,,
{8},,,,,,,,
{8},,,,,,,,
{8}6-3[512#16:1],,,,,,,,
{8},,,,,,,,
{8},,,,,,,,
{8},,,,3b/4b,,6b/5b,,
{8}2b>7[16:5],4<1[16:5],6<3[16:5],8>5[16:5],,4<1[16:5],6<3[16:5],8>4[4:1],
{8},5,6,7,8-3[8:1],7,6,,
{8}5h[4:1],1,2,3,6h[8:1],2,3,4,
{8}7h[1024:1],1,1,3h[1024:1],5-8[8:1],5,7h[1024:1],,
{8}7b<2[16:5],5>8[16:5],3>6[16:5],1<5[16:4],,5,4,3,
{8}4h[1024:1],2,2,8h[1024:1],6-2[8:1],6,4h[1024:1],,
{8}3V15[4:1],,5V31[4:1],6,,7,6p2[16:3]*^3[8:1],,
{8}6,,1,,7h[1024:1]/5h[1024:1],7h[1024:1]/5h[1024:1],4,3,
{8}2bV46[16:4],4V68[4:1],6V82[16:4],8V24[16:4],,5,6,6h[4:1],
{8},4,2h[4:1],,1,7h[4:1],,6p3[8:3],
{8}4h[4:1],,,,1-5[8:1],1,5,,
{8}7h[1024:1],5,5,3h[1024:1],1,7h[1024:1],5,5,
{8}7bV53[16:4],,3V17[16:4],1V75[16:4],,5V31[4:1],3V17[4:1],1,
{8},5,4,3,28,7,6,5,
{8}46,46,35,35,17,17,28,28,
{16}1,1,1,1,1,1,1,1,{32}1b,2,3,4,1,8,7,6,1,2,3,4,1,8,7,6,
{8}1,1h[4:1],{16}5,6,{8}7,2,2h[4:1],{16}6,7,8,,
{8}3,3h[4:1],{16}7,8,{8}1q7[16:3],4,3,{16}2,,,,
{8}8,8h[4:1],{16}4,3,{8}2,7,7h[4:1],{16}3,2,1,,
{8}6,6h[4:1],{16}2,1,{8}8q6[8:1],6<2[16:3],5,{16}4,,,,
{8}5^7[8:1],5,{16}8,1,{8}2,6^8[8:1],6,{16}1,2,3,,
{8}7^1[8:1],7,{16}2,3,{8}4V63[4:1],1-6[8:1],8,{16}1,,,,
{8}1^3[8:1],1,{16}4,5,{8}6,2^4[8:1],2,{16}5,6,7,,
{8}3^5[8:1],3,{16}6,7,{8}8V26[4:1],5,4,{16}3h[4:1],,,,
{8}4,{16}4-2[8:1],3,5,,{8}4,{8}5,{16}5-3[8:1],4,6,,{8}5,
{8}6,{16}6-4[8:1],5,7,,{8}6,{8}7^2[8:1],7,5,,
{8}6h[8:1],{16}5-7[8:1],6,4,,{8}5,{8}4,{16}4-6[8:1],5,3,,{8}4,
{8}3,{16}3-5[8:1],4,2,,{8}3,{8}2-6[8:1],2,6,,
{8}47,{16}6,5,6,,{8}47,{8}52,{16}3,4,3,,{8}52,
{8}83,{16}2,1,2,,{8}83,{8}16,{16}7,8,7,,{8}16,
{8}28,28,46,46,57,57,24,24,
{16}3,5,1,5,8,5,7,5,{32}8b,1,2,3,4,5,6,7,8,1,2,3,4,5,6,7,{1}8b/4b,
{1},{4},,4,
