&title=风屿
&artist=OSU_Live
&first=1.5
&des=XJn
&clock_count=4
&lv_5=14
&inote_5=(170.005)
{4}2,5,3,6,
{4}8,B8,5,,
{4}2,B3,4,,
{4}5,E4,B2,,
{16}7,,,,E6,,,,B4,,,,3,,4,,
{16}1,,,,B5,,,,B7,,,,6,,5,,
{16}8,,,,B4,,,,B2,,,,4,,5,,
{4}4,E6,E7,E8,
{4}4,3,B1,2,
{4}3,B8,1,,
{4}6,4,7,5,
{4}8,E2,E3,8,
{4}1,2,3,4,
{4}5,C,4,,
{4}27,,36,,
{1}45,
{1},
{16}8-4[8:1],,,,8,,,,1-5[8:1],,7-3[8:1],,1<5[8:1],,7,,
1>5[8:1],,,,1,,,,2-5[8:1],,5-3[8:1],,2,,8,,
1,,7-4[8:1],,4-6[8:1],,7,,1,,8,,3w7[8:1],,5,4,
3,,,,46,,,,12,,8,7,6,5,4,3,
1-4[8:1]/2,,,,1/7-2[8:1],,,,7/4-8[8:1],,,,47,,6,,
5-1[8:1],,,,25,,,,87,,16,,25,,,,
1/8w4[8:1],,,,8,,,,1-4[8:1],,1-6[8:1],,1-5[8:1],,1,,
1w5[8:1],,,,1,,,,25,,,,47,,,,
{32}36,,,,,,,4x,5x,,,,,,,,37,,,,,,2,,8,,,,4,,,,
{16}8,,3,,8,,2,,,8,1,7,2,6,3,5,
4x/C,,6x/C,,2x/C,,8x/C,,2x/7x,,,,1-5[8:1]/8-4[8:1],,27,,
18,,,,,,36,,,,,,8/1-5[8:1],,,,
12,,,,,,45,,,,25,,47,,26,,
37,,26,,,,,,,,,,38,,1q4[2:1]*p6[2:1]/6,,
,,1,,,,,,,,,,12,,7/8-4[8:1],,
,,18,,,,,,3,,,3,4,,4,,
24,,,,,,,,,,,,1-5[8:1]/7,,,,
1/7-3[8:1],,,,8/7,,8,,,,,,1/2-6[8:1],,,,
2,,,,,,5,3,5,,,,,,46,,
57,,,,1,8,2,7,3,6,4,5,3,6,2x,7x,
1x,,,,,,,,34,,,,,,47,,
56,,,,,,,,1-6[16:3],,,6-3[16:3],,,3-8[16:3],,
8,,,,,,,,36,,,,,,,,
45,,,45,,,,,4,5,3,6,2,7,1,8,
1,,,,,,,,8-4[8:1],,,,8w4[8:1],,,,
8,,,,,,26,,26,,,,,,4,,
2,,5,,2,,6,,2,,7,8,1,,,,
1,,,,,,34,,,,,,2,,8,,
56,,,,,,38,,,,,,12,,,,
43,,,,,,61,,,,,,87,,,,
1,,2,,3,,4,,5,,6,,7,,8,,
1,2,3,4,5,6,7,8,51,4,3,2,1,8,7,6,
5b,4b,5b,4b,5b,4b,5b,4b,5b,4b,5b,4b,,,,,
5,3,5,3,4,2,4,2,8,7,6,5,1,2,3,4,
6,4,6,4,5,3,5,3,7,6,5,4,8,1,2,3,
5,4,6,3,7,2,8,1,8,7,6,5,1,2,3,4,
8,7,6,1,2,3,7,6,5,2,3,4,8,7,6,1,
2,3,8,7,6,5,4,3,2,1,8,4,8,4,1,3,
1,3,1,8,7,6,1,2,3,4,7,3,7,3,8,2,
8,2,8,7,6,5,8,1,2,3,1,8,1,8,2,7,
2-6[8:1],,,,2/5-1[8:1],,3/5,,7-3[8:1]/5,,,,7/1,,,,
28,,,,,,,,,,,,1-4[8:1]/8,,,,
1-6[8:1]/2,,,,18,,7,,,,,,4/6-2[8:1],,,,
26,,,,,,3x,3x,3x,,,,7x,7x,7x,,
1,,,,7,8,6,1,5,2,4,3,1,2,8x,7x,
6x,,,,,,,,34,,,,,,26,,
18,,,,,,,,18,,,25,,,47,,
36,,,,8h[8:6]/4,,4,,4,,4,,4,,4,,
4,3,2,1,8,7,6,5,4/8,7,6,5,4,3,2,1,
48,37,26,15,8,7,6,5,4,3,2,1/5,4,3,2,1,
8,,,,,,,,,,,,,,,,
,,,,,,,,,,,,,,,,
{1}1b<5[1:14]*>5[1:14]*b<5[1:14]*>5[1:14],
,,,,,,,,,,,,,,
{16}7x,4,7,4,5x,3,5,3,6x,4,6,4,5x,2,5,2,
{16}8x,4,8,3,8,2,8,1,5x,1,5,2,5,3,5,4,
{16}5x,4,5,4,7x,2,7,2,6x,3,6,3,8x,1,8,1,
{16}6x,5,7,4,6,5,7,4,6,5,7,4,8x,4,8,4,
{16}6x,2,6,2,5x,1,5,1,7x,3,7,3,8x,1,8,1,
{16}4x,3,5,2,4,3,5,2,5x,3,4,2,5,3,4,2,
{16}7x,4,6,5,7,4,6,5,7,4,6,5,7,4,6,5,
{16}7,5,6,4,7,5,6,4,7,5,6,4,7,5,6,4,
{16}5x,3,5,3,4x,2,4,2,1x,3,1,3,7x,1,7,1,
{16}6x,4,6,4,6,4,6,4,5x,2,5,2,5,2,5,2,
{16}8x,1,6,2,8,1,7,3,5x,4,7,3,5,4,6,2,
{16}8x,3,1,2,5,4,6,3,5x,2,4,3,6x,1,7,8,
{16}6x,5,6,5,8x,1,8,1,4x,3,4,3,8x,1,8,1,
{16}7x,5,7,5,8x,1,8,1,4x,2,4,2,8x,1,8,1,
{16}6x,5,7,4,8,3,1,2,4,3,5,2,6,1,7,8,
{16}6,5,7,4,8,3,1,2,4,3,5,2,6,1,7,8,
8b,2,3,4,8b,3,4,5,8b,4,5,6,8b,5,6,7,
4b,6,7,8,1,2,3,4,7b,1,2,3,4,5,6,7,
5b,7,8,1,5b,8,1,2,5b,1,2,3,5b,2,3,4,
8b,1,7,2,6,3,5,4,6,3,7,2,8b,1,8,1,
7b,5,4,3,7b,4,3,2,7b,3,2,1,7b,2,1,8,
5b,4,5,4,5,4,5,4,6b,3,6,3,6,3,6,3,
7b,8,6,1,5,2,4,3,1,2,8,3,7,4,6,5,
7,8,6,1,5,2,4,3,1,2,8,3,7,4,6,5,
2b,1,4,5,8b,7,1,6,8b,7,4,5,2b,1,3,8,
2b,1,5,6,8,7,3,4,5b,1,2,8,1,7,8,5,
4b,1,2,8,3,1,2,5,4b,7,8,6,1,7,8,4,
3b,1,2,6,5,8,4,1,3b,7,2,6,8b,5,1,7,
3b,4,1,8,5b,6,4,7,5b,6,1,8,3b,4,2,5,
3b,4,8,7,5b,6,2,1,8b,4,3,5,4b,6,5,8,
1b,4,3,5,2,4,3,8,1,6,5,7,4,6,5,1,
2,4,3,7,8,5,1,4,2b,6,3,7,5b,8,4,6,
1b,4,3,5,2b,4,3,8,1b,6,5,7,4b,6,5,1,
2b,4,3,7,8b,5,1,4,2b,6,3,7,5b,8,4,6,
1b,,8b,7,6,8,1,2,8,7,6,1,2,3,1,8,
7,,26,,1,8,7,1,2,3,1,8,7,2,3,4,
8,,,,7,,,,6,,,,8,,,,
7,,,,6,,,,8,,,,7,,,,
6,,,,8,,,,7,,,,6,,,,
1-5[8:1]/2-6[8:1],E
