&title=笑笑贡丸法核说唱
&artist=炒饭国国王大B一世
&first=-1.01
&des=抓冷蛋蛋
&lv_7=贡丸
&inote_7=(170)
{4},,,,,,,1?pp1[4:1]/7?qq7[4:1],,1?pp1[4:1]/7?qq7[4:1],,1?pp1pp1pp1pp2[16:15]/7?qq7qq7qq7qq6[16:15],,,,,
{2}7b/1b`8b-4[8:1],2b/8b`1b-5[8:1],
{32}8b/7,6h,5,,,,,,8b/1,2h,3,,,,,,8bw4[8:1]/7,6h,5,,,,,,,,,,,,,,
{8}5x/3xh[8:1],1,6/4h[8:1],2,5/7h[8:1],1,3/6h[8:1],8,
5/3h[8:1],1,6/4h[8:1],2,5/7h[8:1],1,3/6h[8:1],8-4[8:1],
{32}2,3,4,,8b-6[12:1],,,,1,2,3,,8b-4[8:1],,,,
2,3,4,,8b-6[12:1],,,,1,2,3,,8b,,,,3s7[8:3],,,,,
8b,,,,,,8b,,,,,8h[4:1],,,,,,,,,,,,,,,,
{16}5b>4[16:1],,,3b<4<5<6b[8:1],,,2,,1b,,,7,,,3b,,
{32}7,6,5,,1b-3[12:1],,,,8,7,6,,1b-5[8:1],,,,
7,6,5,,1b,,,,8b,,,,8b,,,,
{16}4b<5[16:1],,,6b>5>4>3b[8:1],,,7,,8b,,,2,,,6b,,
{32}3s7b[8:3],,,,,,8b,,,,8b,,,,,,8bh[4:1],,,,,,,,1,,,,2,,,,
{8}5b/3xh[8:1],1,4/6h[8:1],8,5/3h[8:1],1,4/6h[8:1],8,
34,12,3<6[6:1]/4-8[6:1],12,34,,1,{16}7,7,
{8}4/6h[8:1],8,5/3h[8:1],1,4/6h[8:1],8,5/3h[8:1],1,
65,87,45,18,34,34,65,56,
{12}7,1,5h[24:5],{8}3,1,4h[8:1]/6,8,
{32}3-6[8:1]*<3[8:3],E7,B7,B2,E3,,,,A5/D5/A4,,,,,,,,
3-6[8:1]*<3[8:3],E7,B7,B2,E3,,,,A5/D5/A4,,,,,,,,
{4},{12}7,1,5h[24:5],{8}3,1,4h[8:1]/6,8,
{32}3-6b[8:1]*<3[8:3],E7,B7,B2,E3,,,,A5/D5/A4,,,,,,,,
3-6[8:1]*<3b[16:7],E7,B7,B2,E3,,,,A5/D5f/A4,,,,,,,,,,,,,,,,
{8}5h[8:7],,,,,,,4,
3b/6b,7,26,1,37,8,{32}27,1,8,7,6,5,4,3,
{16}26,,7,7,36,,4,4,36,,5,,26,,7,8,6,5,7,,2V83[16:3]/8,,17,,2/6V47[16:3],,,,6,,,,
{16}3,,2,2,63,,5,5,63,,4,,73,,2,1,3,4,2,,7-5b[12:1]/1,,82,,37,,,,
{24}4,5,4,5,4,5,{16}3,,5,5,36,,4,4,36,,5,,26,,1,8,2,7h[16:13],3h[4:3],,,,,,,,,,,,,,
{32}4b/8b,3bpp8[32:23]*pp8[32:23]*pp8[32:23]*pp8[32:23]*pp8[32:23]*pp8[32:23]*pp8[32:23]*pp8[32:23]*pp8[32:23]*pp8[32:23]*pp8[32:23]*pp8[32:23]*pp8[32:23]*pp8[32:23]*pp8[32:23]*pp8[32:23]*pp8[32:23]*pp8[32:23]*pp8[32:23]*pp8[32:23]*pp8[32:23]*pp8[32:23]*pp8[32:23]*pp8[32:23]*pp8[32:23]*pp8[32:23]*pp8[32:23]*pp8[32:23]*pp8[32:23]*pp8[32:23]/7b,2b/6b,5bqq8[32:21]*qq8[32:21]*qq8[32:21]*qq8[32:21]*qq8[32:21]*qq8[32:21]*qq8[32:21]*qq8[32:21]*qq8[32:21]*qq8[32:21]*qq8[32:21]*qq8[32:21]*qq8[32:21]*qq8[32:21]*qq8[32:21]*qq8[32:21]*qq8[32:21]*qq8[32:21]*qq8[32:21]*qq8[32:21]*qq8[32:21]*qq8[32:21]*qq8[32:21]*qq8[32:21]*qq8[32:21]*qq8[32:21]*qq8[32:21]*qq8[32:21]*qq8[32:21]*qq8[32:21]/1b,4b/8b,
