&title=Raw, Unfiltered Calamity
&artist=DM DOKURO
&first=0
&des=SAURB
&lv_5=14+
&inote_5=(174)
{4},,,,,,,,,,,,
{4}2q3[2:3]/7p6[2:3],,,,,,,,4h[4:1]/5pp1[2:1],,4h[4:1],,2v4[4:1]/8,4V68[4:1]*V28[4:1],,,
{64}1bx/7bx,2bx/6bx,3bx/5bxh[64:30],4bx<1b[2:1],,,,,,,,,,,,,
{4},,,
{8}3bxh[4:1]/B7/B8/E8f,,,,6bxh[4:1]/B2/B1/E2f,,,,
{4}1bx/8bxqq4[2:1],,,2,3bxV17[2:1],,7v5[4:1],{8}6,6,6bx-2-8-4[2:1],,,,,,,,
{8}1bxV37[2:1],,,,7V15[2:1],,,,5bx>1[4:1],,,,,,5bxpp1[2:1],,2bx-4[4:1],,,,,,
{16}3,5,3,5,
{8}2h[8:1],8,,7h[4:1],1,1,,6h[4:1],4,4,,5h[4:1],3,3,,4h[4:1],2,2-4[8:1],,1,8,7-1[8:1],,5,4,4-8[8:1],,8,7,7-4[8:1],,1,2,3v8[8:1],,5-1[8:1],6,1,,2-5[8:1],3,8,,7-1[8:1],6,74,,3-5[8:1],5-1[8:1],3,,7-2[8:1],6,27,,3-8[8:1],8-4[8:1],3,,5-7[8:1],7V13[4:1],56,,,8bx-4[16:1],8,,
{8}2-8[8:1],3,27,,6-4[8:1],4-8[8:1],63,,2-7[8:1],3,72,,6-1[8:1],1-5[8:1],6,,4-2[8:1],3,4-6[8:1]/2,,4/8-4[8:1],1,2,3V17[4:1],3,7<3[4:1],6,5h[4:1],,,7v1[8:1],,2V46[16:3],3,2,,8-4[8:1],7,48,,3<6[8:1],2,1-5[8:1],,1/7-1[8:1],6,7/4-8[8:1],,4/8V25[16:3],7,6v1[8:1],,6,4,3,,2,1b/7b,7,26,8,3b/5b,26,,
{8}2-5[8:1],1,8/2-8[8:1],,2/6-3[8:1],5,6-8[8:1],,1-5[8:1]/6,2,1>4[8:1],,7-1[8:1]/1,6,7-4[8:1],,3-1[8:1]/7,2,3-6[8:1],,3/8-2[8:1],8,8/5x-1[8:1],,5-7[8:1],7-1[8:1],5,,,5b,5,,
{16}4,6,4,6,3-1[8:1],,,,38,,7V58[4:1],,7,,8-4-1[4:1],,,,2h[2:1],,,,,,,,{32}8b,7x/3x,6x/4x,5xpp1[8:3]*qq1[8:3],,,,,,,,,,,,,,,,,,,,,,,,,,,,,
{16}2,,2,,3,4,3,,25,,1,7,1,7,8,,1b/6b,,25,,,,4-8[8:1],5,3,5,,,,,
{16}7,1,5>4-1[8:1]*-8[8:1],,,,,,,,2<4[8:1]*<4[8:1],,,,,,,,Ch[2:1],,,,,,,,,,,,,,,,2qq5[2:1]*>2[2:1],,,,,,,,,,,,,,,,
{8}35,{16}2,2,4-6[12:1],,2,,4-8[8:1],,3,,4/7-3[8:1],,,,1/7,,2,2,4x-1[8:1],,5,,4-8[8:1],,5,,4/2x,,2x,,3bxV15[4:1]/7bx,,,,37,,6-8[12:1],,,,6,,4V26[4:1],,,,4/6V48-2-4[2:1],,,,8V64[4:1],,,,,,,,,,,,
{8}64,{16}7,7,5-3[12:1],,7,,5-1[8:1],,6,,5/2-6[8:1],,,,8/2,,7,7,5x-8[8:1],,4,,5-1[8:1],,4,,5/7x,,7x,,6bxV84[4:1]/2bx,,,,62,,3-1[12:1],,,,3,,5V73[4:1],,,,5/3V51-7-5[2:1],,,,1V35[4:1],,,,,,,,,,,,
{8}8-4[8:1],8,1,2,3-8[8:1],3,5-1[8:1],5,{16}1,2,3,4,8,7,6,5,{8}2-6[8:1],2,7-1[8:1],7,{16}5,4,3,2,8,7,6,5,{8}2V84[4:1],2,7,7,6V48[4:1],6,3,2,1V38[4:1],1,8-4[8:1],7,
{8}6b-1[8:1],6,3,3,2-5[8:1],8,2,7,6-2[8:1],4,6V84[4:1],3,6,2,2,1,
{16}26,,3,4,2-6[16:1],1,3,8,,,7,7,3-8b[16:1],5,2,4,4,,,,1/7-4[8:1],,6,,2-8[12:1]/7,,3,,2/5p1[8:1]*v8[8:1],,6,,5v3>7v5v7>3v5[1:3],,,,,,,,
{8}E5,B4,E4,B3,,,,,E4,A3,E3,A2,,,B2/B3/E3,,,,,,,,,,
{8}3,3,8,8,1v8[8:1]/2v3[8:1],,,,,,6h[8:1],4,,4bv3[8:1]/5bv6[8:1],,,,,2h[8:1],8,4v3>2-7<6v5[4:5],,8h[4:5],,,,,,,,,,,,,,
{8}3bqq8[2:1]/5bh[8:3],,,,6,6,7,7V51[16:7],,,,,2,2,3,3-7-1-5[1:1],,,6h[4:5],,,,,,,,,,4,37,1,2/6-2-8-4[2:1],,,,,,3V58[2:1],3,3h[2:1],,,,,2,2,17,1b/7b,
{16}26,,,,2,,2,,26,,6,,6,,6,,
{16}3,4,3,4,1,8,1,8,5,6,5,6,47,,38,,
{16}1/2b,3,4,5,8,7,6,5,4/3b,2,1,8,4,5,6,7,8/1b,2,3,4,1,8,7,6,5/4b,3,2,1,4,3,2,1,8/4b,3,2,1,8<5[4:1]/4,3,2,1,8b/4b,3,2,1,4,3,2,1,8b/4b,37,26,15,8,7,6,5,4b/8b,37,26,15,4,3,2,1,8b>3-6<8b[4:3]/4bh[1:1],,,,,,,,,,,,,,,,,,,,
{8}1>5[4:1],,5>1[4:1],,1,,Ch[4:3],,,,,,1-3-5-7[2:1],,1h[4:1],,,,1h[4:1],,,,
{20}2b/7,1,8,7,6,5,4,3,2,1,8/7b,6,5,4,3,2,1,8,7,6,5/1b,2,3,4,5,6,7,8,1,2,3/4b,5,6,7,8,1,2,3,4,5,
{24}8b/6,1,2,3,4,5,6,7,8,1,2,3,4/5b,6,7,8,1,2,3,4,5,6,7,8,1/2b,3,4,5,6,7,8,1,2,3,4,5,6/8b,1,2,3,4,5,6,7,8,1,2,3,
{32}4/8b,1,2,3,4,5,6,7,8,1,2,3,4,5,6,7,8/5b,4,3,2,1,8,7,6,5,4,3,2,1,8,7,6,5/2b,3,4,5,6,7,8,1,2,3,4,5,6,7,8,1,2/6b,5,4,3,2,1,8,7,6,5,4,3,2,1,8,7,6/2b,3,4,5,6,7,8,1,2,3,4,5,6,7,8,1,2/6b,5,4,3,2,1,8,7,6,5,4,3,2,1,8,7,6/2b,3,4,5,6,7,8,1,2,3,4,5,6,7,8,1,
{48}2bx-8-5[16:3]/6bx-4-1[16:3],7x/3x,8x/4x,1x/5x,,,,,,,,,2bx/6bx,,,,,,,,,,,,2bx/6bx,3bx/7bx,4bx/8bx,,,,,,,,,,
{16}2-6[8:1],,2,,7-2[8:1],,7,,5>2[8:1],,5,,{24}1bx,8x,7x,6x,,,
{16}6x-1[8:1],,5,4,6-4[12:1],,2,,6/3-8[8:1]*-7[8:1],,,,3b,,,,
{16}1-6[8:1]/6,,2,,1/7-4[8:1],,4V68[6:1],,7/1-5[8:1],,2,,1b,,,,3h[8:1],,,,
{16}2-8[8:1]/7,,35,,2V46[4:1]/6-1[8:1],,7,,2b/6bV42b[4:1],,,,8,,8,,7,,7,,6-1[8:1],,1,,2-5[8:1]/6,,3,,2-8[8:1],,8,,2-6[8:1],,6V41[4:1],,2/7-3[8:1],,8,,7b,,,,8,,8,,4,,4,,26,,26,,
{16}3,4,2,6,5,7,2,8,{32}1,2,3,4,8,7,6,5,1,2,3,4,5,6,7,8,1-3-5-7-1[2:1]/5bh[1:1],,,,,,,,,,,,,,,,,,,,,,,,,,,,,,,,
{32}1,2,3,4h[32:29],,,,,,,,,,,,,7,,,,,,,,6,,,,,,,,5,6,7,8h[32:61],,,,,,,,,,,,,,,,,,,,,,,,,,,,,4,3,2,1h[32:29],,,,,,,,,,,,,,,,,,,,,,,,,,,,,
{32}27,36,4w8[1:3]/5w1b[1:3],,,,,,,,,,,,,,,,,,,,,,,,,,,,,,
{4},,,,,,,,,,,,
{4}4>5[1:5]/5,,,,,B4,B3,B2,E1/B8/B1,,,,,E1,E2,E3,A4/E4/E5/B4,,,,,,,,
{4}4>5b[4:19]/5,54,5,5,,B5,B6,B7,A1/A8/D1/E1,,,,,E8/B8,B4/B3,E2,4>5[4:3]*>5[4:3],,,,,
{4}B3/B2/E3,E5,E1/B8/B1,7w3[2:3],,,,,,,,{4}2q3[2:1]/7p6[2:1],,,,
{4}4/5h[2:1],,1h[2:1],,{32}8b,27,36,4qq1[4:3]/5pp8[4:3],,,,,
{4},,,,,3h[2:1]/6,5,4-2-8-6-4[1:1]*-6-8-2-4[1:1],,,,,,
{4}2-6-8-4[1:1],,5bh[1:1],,,,,,
{4}3h[4:1],4h[4:1],2-6-4-8-2[1:1],,,,,,
{4}1,7,C,,,,
{4}E3h[2:13],,,,E7h[2:11],,,,B2h[2:9],,,,B6h[2:7],,,,B3h[2:5],,,,B7h[2:3],,,,Ch[2:1],,,,
{8}3b/6b,3b/6b,3b/6b,,2/7h[2:2],,,,2,,,,{24}3x,6x,3x,6x,3x,6x,2x,7x,2x,7x,2x,7x,
{32}1bx,8x,7x,6x,5x,4x/8x,3x/7x,2x/6x,1x/5x,,,,,,,,
{16}28,,3,4,3,,2-5[8:1]/6,,1/8-4[8:1],,2,,8,,2,2,5-3[8:1],,8,8,5-8[8:1],,2,,
{24}1-5[8:1]/5,2,3,4,,,
{16}1/4x>1[8:1],,,,{32}8q4[8:1],7,6,5,4p8[8:1],,,,6-2[8:1],,,,,,,,6b,,,,,,,,
{16}1-5[8:1],8,7,6,5-3-8[8:1]/1b-7-4[8:1],,,,1b,,,,{32}1bx/5bx,2x/6x,3x/7x,4x/8x,1,2,3,4,5,6,7,8,1,2,3,4,1bxv8-5[4:1]*v2-5[4:1]/5b,,,,,,,,,,,,,,,,,,,,,,,,
{16}2-4<6[4:1]/6-8>2[4:1],,26,,26,,,,,,,,
{24}3,8,3,8,3,8,3-6[8:1],,,6-3[8:1],,,3-8[8:1]/7,,,{16}8>4[8:1],,,,7,,
{16}5b,,5,,1-5[8:1],6,2,7,1,,8,8,4v1[8:1]*v7[8:1],,3,,4b,,,,2>5[8:1]/6,,1,,{16}6,7,8,1,6,7,8,1,26,37,48,15,6,7,8,1,26,37,48,15,6,7,8,1,
{32}2/6b,5,4,3,2,1,8,7,6,5,4,3,2,1,8,7,
{8}6/2,2,25,25,
{16}3b,4,3,5,4,5,2,4,3,6,4,5,3,4,2,6,1b,8,3,5,1b,7,4,6,2b,8,3,5,1b,7,5,6,
{24}4b,3,2,8b,7,6,3b,2,1,7b,6,5,3b,2,1,8b,7,6,5/3b,2,1,8b,7,6,{16}5/1b,,1b,,2b/4b,,2b/4b,,
{32}5h[2:1]/1,8,7,6,,4,3,2,1h[4:3],,,,,,,,,6,7,8,,2,3,4,5h[2:1],,,,,,,,,8,7,6,,4,3,2,1,8,7,6,5,4,3,2,1-4[8:1]/7b-4[8:1],,,,,,,,17,,,,,,,,
{16}71,,6,5,6,,7-4[8:1]/3,,8/1-5[8:1],,7,,1,,7,7,4-6[8:1],,1,1,4-1[8:1],,7,,
{24}8-4[8:1]/4,7,6,5,,,
{16}8/5x<8[8:1],,,,{32}1p5[8:1],2,3,4,5q1[8:1],,,,3-7[8:1],,,,,,,,3b,,,,,,,,
{16}8-4[8:1],1,2,3,4-6-1[8:1]/8b-2-5[8:1],,,,8b,,,,{32}8bx/4bx,7x/3x,6x/2x,5x/1x,8,7,6,5,4,3,2,1,8,7,6,5,8bxv1-4[4:1]*v7-4[4:1]/4b,,,,,,,,,,,,,,,,,,,,,,,,
{16}7-5>3[4:1]/3-1<7[4:1],,73,,73,,,,,,,,
{24}6,1,6,1,6,1,6-3[8:1],,,3-6[8:1],,,6-1[8:1]/2,,,{16}1<5[8:1],,,,2,,
{16}4b,,4,,8-4[8:1],3,7,2,8,,1,1,5v8[8:1]*v2[8:1],,6,,5b,,,,7<4[8:1]/3,,8,,{16}3,2,1,8,3,2,1,8,73,62,51,84,3,2,1,8,73,62,51,84,3,2,1,8,
{32}7/3b,4,5,6,7,8,1,2,3,4,5,6,7,8,1,2,
{8}3/7,7,74,74,
{16}6b,5,6,4,5,4,7,5,6,3,5,4,6,5,7,3,8b,1,6,4,8b,2,5,3,7b,1,6,4,8b,2,4,3,
{24}5b,6,7,8,1,2,3/5b,6,7,8,1,2,
{32}3/4b,5,6,7,8,1,2,3,4,53,62,71,8,7,6,5,{48}8bx/4bx,3x/7x,2x/6x,1x<4b[2:1]/5x,,,,,,,,,
{4},,,4b-1-6[2:1]/7b-3[2:1],,,,8b-5>4b[2:1],,,,5b-8-3[2:1]/2b-6[2:1],,,,3b-1v8-6b[2:1],,,,1b-4-1b[2:1],,,,7b-2[4:1]/8b-5>4[4:1],,,,8p1[2:1]/1-4<5[2:1],,,,C,
E
