&title=星降る夜と一輪の花
&artist=seatrus
&first=0
&des=AClrt_
&lv_5=14
&inote_5=(177)
{8},,,,,,,,,,,,,,,,
2/7,3,4,5,6,5,4,3,5,6,3,4,5,6,4,3,63,5,4,3,5,4,6,3,5,6,4,3,5,5,3,3,
46,5,6,7,5,6,7,6,4,3,2,4,3,2,3,4,5,6,4,3,6,5,3,4,5,6,4,3,52,2,4,3,
5x,6,3,4,6,{16}7,5,6,,4,,
{8}3,2,4,3,2,
{16}2,4,3,,
{8}5,46,7,5,6,4,
{16}6,5,7,,
{8}4,6,3,5,2,4,{16}3,4,2,,
{8}5,3,4,6,5,4,
{16}3,6,3,,
{8}5,4,3,6,2,7,1,8,1,8xb-4[44#4:1]*-4[44#4:1],,,,,,,,
{12},,,,,,,,,,,,
{8}1b,2,34,2,1v4[8:1],8,17,6,
5q3[4:1],,3^6[4:1],2,,1-5[8:1],,7,7-4[8:1],,,2q5[4:2],,4,5,6,
7,,4/7-4[8:1],,3p7[8:1],,3/5-1[8:1],,5,2,3,3,47,6,5,5,
{16}2x/6x,3,4,5,6/1x,7,8,1,
{24}2/7x,6x,5x,4x,3x,2x,
{32}1x,8x,7x,6x,5x,4x,3x,2x,1xbqq5[4:3],,,,,,,,
{8},,B3,,,,,,,,2,3,{16}5,3,4,,
3-1[8:1]/4,,,,35,,5^7[8:1],,,,1,2,3x-5[8:1],,,,7,,6,,
6-8[8:1]/5x,,,,6,,4,3,2/7-5[8:1],,,,7/3h[4:1],,,,4^6[8:1],,,,4,,2,3,
4/7-1[8:1],,,,5,,4,,3/8<6[8:1],,,,8,,3,2,
1p7[2:1]/5,,,,
1/5x,,6x,,7xp1[4:1],,8x,,1xp7[2:1],,8x,,7x,,6x,,
7xp1[4:1],,8x,,1xp3[4:1],,8x,,7x,,6x,,
5p3[2:1],,,,
5/1x,,2x,,3xp5[4:1],,4x,,5xp3[2:1],,4x,,3x,,2x,,
3xp5[4:1],,4x,,5xp7[4:1],,4x,,3x,,2x,,1x,,8x,,
{8}1xb-4[8:1]/6xb,,
{16}5xh[4:1],,,,3q5[2:1],,5,6,7x/3,,,,,,8,,7h[4:1],,,,6p4[5:2],,4,3,2x/6,,,,
{8}1xb-4[8:1],,
{16}5hx[4:1],,,,3q5[2:1],,5,6,7x/3,,,,,,8,,7h[4:1],,,,6p4[2:1],,4,3,2x/6,,,,
3-1[8:1],,,,3x,,5hx[4:1],,,,1,2,3x/6x-8[8:1],,7,,4x/6x,,4,,3-6-2[4:1]/7x,,,,
36,,5,,4-7[8:1],,4,,{24}1x,2x,3x,,,,8bx,,,,,,8x/4x,7x/3x,6x/2x,,,,
{16}1x,,
{24}1xb/5x,6x,7x,,,,2,,,2bx/6x,7x,8x,,,,,,,
{16}3bx/8b,4x,5x-8[8:1]*qq2[2:1],,,,5bx,A8f,,,7-4[8:1],,,,7x,,,
5hx[16:1]/2hx[16:1],,,3xh[16:1]/5h[16:1],,
4hx[16:1]/6xh[16:1],,,7h[16:1]/5xh[16:1],,,1xh[16:1]/8xh[16:1],,
2xb/7xhb[16:1],,,3h[16:1]/6h[16:1],,,4h[16:1]/5h[16:1],,
3bx/6b,2,1,8,5x,6,7,8,1x/4x,3,2,1,8,7,6x/3x,2,1,8,7,6,5x/1x,2,3,4,5/1x,8,7,6,
5V31[4:1]b/1,8,7,6,5/1s5[4:1],,A3f,,7b,,,,6bxh[16:1],,,
7h[16:1]/5h[16:1],,,4h[16:1]/8xh[16:1],,2h[16:1]/7xh[16:1],,,3h[16:1]/6h[16:1],
,,2h[16:1]/4h[16:1],,3bx/5bxh[16:1],,,4h[16:1]/6xh[16:1],,,5xh[16:1]/7h[16:1],,
1bx/8bx,7,6,5,1bx,2,3,4,5/1bx,8,7,6,
5/1bx,8,7,6,5/7hx[16:1],4,3/6hx[16:1],2,1xb-6[8:1]*-4[8:1]/5hx[16:1],,,,1b,,,,
3bxv6[8:1]/7bx-2[8:1],,,,{32}3b/7b,B4/B5/Cf/B1/B8,,,
{16},,8x/4x-1[8:1]b,,,,4/7xh[16:1],,,6xh[16:1],,,2xh[16:1]/5xh[16:1],,
3xh[16:1]/4h[16:1],,,4h[16:1]/5h[16:1],,,5h[16:1]/6h[16:1],,
4hb[16:1]/7h[16:1],,,2hx[16:1]/6xh[16:1],,,1hx[16:1]/8h[16:1],,
2bx/7bx,3,4,5,2x,3,4,5,6x/2x,7,8,1,2x/6x,7,8,1,2x/6x,5,4,3,2,1,8x/4x,3,
2,1,8,7,6xb/1x,2,3,4,5bxV38[4:1]/Cf,,,,
{24}8xV24^5[4:1]/5-7^8[8:1],7x,6x,,,,5xbv2[4:1],,,A8f,,,,,,,,,
7xb,6x,5x,,,,
{16}2x/4b,,3,,3xb/5,,5,,3xb-8[8:1]/6bx-3[8:1],,,,
{32}3bq5[4:7]/6bp4[4:7],Cf/B1/B2/B5/B4,,,,,,,
{16},,,,,,,,,,,,,,,,,,,,,,,,,,,,
,,,,3h[8:3],,,,,,4,,6h[8:3],,,,,,5,,3h[8:1],,4,,53,,2,,4,3,5,4,
{4}6h[2:1]/C,,,,
2h[2:1]/B6,,,,5h[2:3]/B2,,,,,,,,
3h[2:1]/C,,,,7h[2:1]/B3,,,,
5h[2:3]/B4,,,,,,,,
{8}36,5,4,6,5,7,5,6,4,5,3,4,2,4,3,5,4,6,5,7,
5,6,4,5,3,4,2,4,3,5,4,6,5/7,4,3,4,5,6,3,4,35,2,4,3,5,4,6,5,4/7pp4[4:3],
,,,,,,,,,,,7,6,{16}4,6,5,,
{8}7b,7,65,7,8v5[8:1],1,82,3,
4p6[4:1],,6^3[4:1],7,,8-4[8:1],,2,2-5[8:1],,,7p4[4:2],,5,4,3,
2,,5/2-5[8:1],,6q2[8:1],,6/4-8[8:1],,4,7,6,6,52,3,4,4,
{16}7x/3x,6,5,4,3/8x,2,1,8,
{24}7/2x,3x,4x,5x,6x,7x,
{32}8x,1x,2x,3x,4x,5x,6x,7x,8xbpp4[4:3],,,,,,,,
{16},,,,B6,,,,,,,,,,,,,,,,
2,,3,,5,3,4,,2x/4bx,,3,,5x,4,6bx,,7,1,8,2,3x-7[8:1]/7x,,6,,3xb/5x^8[8:1],,,,
{24}5xb/1x-5[8:1],2,3,4,,,1xb,,,
{16}3,4,2,8,1,7,5,6,5,7bx,,2,4,3,5bx-1[8:1],,,,1x,2,3,4,8b-5[8:1],,,,8x/3,,
2,6,1x-5[8:1],,7-4[8:1],,1xV37[4:1],,7x,,1xb,,5x,,6,,
{24}1x-6[8:1]/6bx,2,3,4,,,
{16}1x,,3xv8[8:1],,5x-8[8:1],,3xb,,5x,,1,,2x,4,3x,4,2,5,3x,6,4x,7,
5xbp1[8:1],,8x,,5/7xv4[8:1],,,,7/8x,,1x,,3x/5bv2[8:1],6,7,8,
1bx-6[8:1]*-5[8:1]/5x,,,,1b,,,,3xv8[8:1]/7x-4[8:1],,,,
{32}3b/7b,Cf/B2/B8/B4/B6,,,,,,,
{16}1xb<5[4:1],2,3,4,5xV71[4:1]b/1bx,,,,1,,2,,3x-8[8:1],,4v7[8:1],,3,,4,,
1x-6[8:1],,6V82[4:1]b,,1x,,E5,E6,E7,E8,E1,,1x/3x,,4,,7x/5,,
5x/6,4,3x,6x,2x,7x,1x,8x,
{32}1xb/8xb-4[8:1],,,,,,,,8b^5[8:1]*^3[8:1],Cf/B4/B8,,,,,,,
8bqq4[4:2],,,,
{16},,8x,,3x,,2x,,1xbV35[4:1],,,,5xv2[5:1],,6,,7x-1[8:1],,,,7x,,3,,4x/2x,,1,,
1x/7,,2/6xv3[8:1],,3xV58[4:1],,6,,2x-6[8:1],,1,,2x,,7x-4[8:1],,8xv3[8:1],,
7,,8x,,5V71[6:1],,2x,,3x,,4xb-1[8:1],,4,,8x,,7,,6x-3[8:1],,1bx,,6x,,2,,8b,,
3,4,3,,1b,,6,5,6,,7x/4,,3x/7,,2x/6,,1x/5x,,1x/5x,,4x/8x,,4x/8x,,1x/5x,,1x/5x,,
2x/6,,
{16}6x/2x,3,4,5,6x/1x,7,8,1,2x/6x,5,4,3,2x/7x,1,8,7,
{24}6x/3x,4,5,6,7,8,1,2,3,4,5,6,7,8,1,2,3,4,5xb/Cf,,,,,,
{16}
1h[4:1]/7x<3[8:3],,,,,,3xq8[4:1],2,1h[4:1],,,,,,2,3,4hx[4:1],,
7^4[8:1],,7,,3,2,1xp4[4:1],,1,,4xp8[4:1],,5x,6x,7xh[4:1],,,,,,
1,2,3,4,8,7,6,5,2,3,4,5,E1,E8,E7,E6,4,3,2,1,5,6,7x/1x,,,,
8h[4:1]/2x>6[8:3],,,,,,6xp1[4:1],7,8h[4:1],,,,,,7,6,5hx[4:1],,
2^5[8:1],,2,,6,7,8xq5[4:1],,8,,5xq1[4:1],,4x,3x,2xh[4:1],,,,,,
8,7,6,5,1,2,3,4,7,6,5x-1[8:1],,3x,,5w1[8:1],,,,5xb,,,,
3bx>8[8:1]/7bx^4[8:1],,,,3x/7x,,,,,,
1x/5x,2x/6x,3xq1[8:2]/7x,,,,1>5[4:2],,7,6,5h[8:1],,,,
5x<4[4:3],,6x,7,8xh[4:1],,,,,,7x,6,5h[4:1],,,,,,
E6,E7,E8,E1,4x,3x,2x,1x,5,6,7,8,E4,E3,E2,E1,6,7,8,4,3,2,1x/5x^8[8:1],,,,
1x/5xb,,3,,3,,3x/8,,2x/7,,1x/6,,1/6x,,2x/5,,1x,6,2,5,3x,6,3,6,4x,7,4,7,5x>7[4:8],6,5,6,
5bp4[4:5]b,,,,,,,,,,,,,,,,,,,,,,,,,,,,,,,,5h[2:1],
{8},,,,,{16},,,,,
{8}4h[2:1],,,,,,,,C,,,,,,,,,,,,,,,,
4h[2:1],,,,,,,,5h[2:1],,,,,,,,C,,,,,,,,E
