&title=神凪
&artist=BlackY feat. Risa Yuzuki
&first=0
&des=Donut×H
&clock_count=4
&lv_5=14+
&inote_5=(185)
{1},,8h[1:1],
{24}5,7,4,6,3,5,2,4,5,6,7,8,1b<3[4:5],,,,,,{4},,,,,
{8}1h[2:1],,,,,,2,,8,,3,,7,,4,,6,,5^2[4:1]*pp7[8:3],,5,,,,
{12}1,2,3,4,5,7,5,6,4,5,3,4,
{24}1,2,3,4,5,6,7,8,1,2,3,4,
{4}5p1[2:1]/7b,7,7,7,6/8-3[4:1],6,
{8}6,{12}5,4,5,{8}4,3/6V48[2:1],,3,,
3,,3,,2,,2,{12}2,4,3,5,4,6,{8}5,4-1[8:1]/7b,,47,,
2/7-4[8:1],,27,,3-8[8:1]/5,,35,,4/6-1[8:1],,46,,
{12}2,4,3,6,5,6,3,4,2,7,8,5,3,3,6,2,2,7,
1,1,8,7V16[4:1]/2V83[4:1],72,72,7b/2b,,,,,,
{16}6,5,4,3,6,5,4,3,
{4}2b/7,8-5[8:1],2-6[8:1],4-8[8:1],1-4[8:1],7-3[8:1],5>2[8:1],5<8[8:1],5,
{16}1,2,3,4,5,6,7,8,1,2,3,4,1,2,3,4,5,6,7,8,
5,6,7,8,1,2,3,4,
{4}5-1[8:1]/7,6-2[8:1],3-7[8:1],4-8[8:1],2-5[8:1],7-3[8:1],
4>1[8:1],4<7[8:1],{16}4,,8,1,2,3,4,5,6,7,8,1,2,3,4,5,1,8,7,6,5,4,3,2,
{24}1,8,1,8,1,8,1,8,1,8,,,{8}27,,
{12}1,2,3,8,7,6,2,3,4,7,6,5,3,4,3,6,5,6,4-8[8:1],4,5,4b,,,
{16}7,6,5,4,6,5,4,3,5,4,3,2,{12}1b/4,
,75,,24,,18,,65,,12,38,
{16}4b/7b,,6,5,4,3,2,1,83,,2,1,3,8,4,7,5b,,46,,
3,4,3,,2b/5,,34,,{12}87,87,87,1b/6,,,
{24}4,5,4,5,4,5,3,6,3,6,3,6,2,7,2,7,2,7,
1,2,3,4,5,6,7,8,1,2,3,4,51,8,7,6,5,4,3,2,1,8,7,6,{2}5/1bs5[8:3],
{8},,6h[16:1]/4,3h[16:1]/5,2/5h[16:1],3h[16:1]/6,4/7h[16:1],{16}3,26,
{8}1q5[8:1]/5q1[8:1],,,,3-7[8:1]/7-3[8:1],,,,
1h[4:1],,7V51[4:1],1,1<4[4:1],2,3,2,
{16}1,8,7,6,5,4,3,2,5,,5s1[4:1]*z1[4:1],,,,,,,,,,
{12}3h[12:1],7h[12:1],4h[12:1],6h[12:1],5h[12:1],3h[12:1],2h[12:1],6h[12:1],1h[12:1],7w3[8:1],,,,,,
1h[4:1]/5h[2:1],,,,1,1,1-5[4:1],,,
{16}6^1[4:1],,6,,,,2,,2^5[4:1],,,,6z2[4:1],,,,,,,,
{12},,,2,5,3,4p1[8:3],2,5,4,,,,,,
7,4,6,5<4[8:3],7,4,5,,,,,,1,1,1,5,5,5,
{16}5-1[16:1],,,5/3-7[16:1],,,6-1[16:1],,,4-8[16:1],,,5-2[16:1],,,3-6[16:1],,,,,
{8},7,7,7,24,3,3,3,56,7,7,7,57,46,53,24,
{16}1,8,2,7,3,6,4,5,3,4,2,5,1,6,8,7,
{24}8,1,2,3,4,5,1,2,3,4,5,6,2,3,4,5,6,7,8,1,2,3,4,5,
{16}8bz4[8:12],,,,3,,5,,3,,5,,3,5,3,5,{24}3,5,3,5,3,5,3,5`,3,5,,,,,,,,,
{4},1b^4[8:1]*^6[8:1],1-5[8:1],1/7V53[4:1],3<1[4:1]/7,1qq5[16:5],
,3^8[8:1]*^6[8:1],3-7[8:1],1-5[8:1]/3,1-3[8:1]/8-4[8:1],
1-6[8:1]/8-6[8:1],8/1>5[4:1],1/5<1[4:1],1>5[4:1],5<1[4:1],1pp5[16:5],
{16}5,,6,,7,,,,
8,7,6,5,4,3,2,1,84,3,2,1,8,7,6,5,48,37,26,15,8b/4h[4:1],,,,
8,4,7,4,6,4,5,4,3,4,2,1,8,7,6,5,
4/7b,,5b/6b,,,2b/4b,,,1b/5b,,,6b/7b,,,4h[4:1]/8h[8:3],,,,,,
{4}4bqq2[16:3]*^7[8:1],4,8-6[8:1]*-4[8:1],8-3[8:1],5q1[8:1]/8,
4p8[8:1]/5,6-2[8:1]/4,3-8[8:1]/6,3/7-3[8:1],7/1w5[8:1],1,
{12}2,2,4,3,3,5,4,4,6,5,5,7,
{8}7b/2b-5[8:1],2,7-4[8:1],7,
1q5[8:1],1,8p4[8:1],8,2-6[8:1],2,7-3[8:1],7,4^1[8:1]*^6[8:1],4,4,,
{16}7,8,7,8,6,1,6,1,5,2,5,2,4,3,4,3,
{24}4,5,6,7,8,1,2,3,4,5,6,7,4,3,2,1,8,7,6,5,4,3,2,1,
{8}5bqq4[2:1]*pp6[2:1],5b,,,,,,,4bq1[2:1]*p7[2:1],4b,,,,,,,
2bV85[2:1]/7bV14[2:1],2b/7b,,,,,,,3bqq4[2:1]/7bqq8[2:1],3b/7b,,,,,,,
{8}74,64,54,54,53,52,51,{16}24,35,{12}46,7,5,6,4,5,{24}3,4,3,4,3,4,2,5,2,5,2,5,
{8}1bqq6[1:1]*<2[2:3],1b,,,,,,,,,,,,,,,
{4}1b-5[8:1],7-4[8:1],2-6[8:1],5-2[8:1],4-7[8:1],6-3[8:1],5v8[8:1]*v2[8:1],5,
{8}1,1,{4}1-5[8:1],2-6[8:1],8-4[8:1],7-3[8:1],6-2[8:1],8-5[4:1]*z4[4:1],8b,,
{8}2-5[8:1],2,2/7-3[8:1],7,7/1-6[8:1],1,1/8-4[8:1],8,8/5>7[8:3],5,5,,,,
{16}6-2[8:1],5,6,5,,,,,3-7[8:1],3,3,3,,,,,{24}1,8,1,8,1,8,2,7,2,7,2,7,
2,3,4,5,6,7,2,3,4,5,6,7,
{4}1bs5[8:15]/8b,2,8,3,7,4,6,6,4bq5[8:15],6,3,7,2,8,1,1,8bp5[1:2],1,2,3,4,6,7,8,
1b-5[1:1],,,1,1,,1h[2:1],,
{8}6,65,64,63,62,61,3,34,35,36,37,3z7[4:1]/8s4[4:1],,,,,56,57,58,51,48,37,26,
1h[8:1]/5h[8:3],,,
{16},,3,4,3,,7,8,7,,6,5,
{12}6b,6,6,7b,7,7,8b,8,8,1h[4:1],,,2b,2,2,3b,3,3,4h[2:1],,,,,,
{16}3,4,2,5,1,6,8,7,1,8,2,7,3,6,4,5,
{24}3,6,3,6,3,6,2,5,2,5,2,5,1,4,2,5,3,6,4,7,5,4,3,2,1b,,,,,,
{16}7,5,6,4,5,3,4,2,5,3,6,4,5,3,6,4,5,4,5,4,5,4,{24}6,5,4,3,2,1,8,7,
{12}6b-2[4:9],,,4,4,4,4,4,4,4,4,4,4,4,4,{24}4,5,4,5,4,5,4,5,4,5,4,5,4,5,4,5,4,5,4,
