&title=Schrecklicher Aufstand
&artist=Katzeohr & Spiegel
&first=0
&des=Der Adjudiator
&lv_5=14+
&inote_5=(180)
{48},
{8},,,
{8}6h[1:1],,5,,5,,5,,3h[1:1],,4,,4,,4,,
7h[1:1],,5,,5,,5,,1h[1:1],,4,,4,,4,,
8h[1:1],,2,,2,,2,,4h[1:1],,6,,6,,6,,
7h[1:1],,8,,8,,8,,
{12}1,2,3,7,6,5,2,3,4,6,7,8,
{8}1b-5[16:2]/4h[6:1],,4h[6:1]/1,,4h[6:1]/6-1[8:1],,4h[6:1]/6,,8-6[8:1]/4h[6:1],,8/4h[6:1],,7s3[4:1]/4h[6:1],,7/4h[6:1],,1h[6:1],,1h[6:1],,1h[6:1]/7-4[8:1],,1h[6:1]/7,,5-7[8:1]/1h[6:1],,5/1h[6:1],,6z2[4:1]/1h[6:1],,6/1h[6:1],,
{12}4-8[8:1],,6,46,,5,5-1[8:1],,2,25,,3,3v8[8:1],,5,35,,6,6v1[8:1],,4,46,,2,
{12}8,5,6,3,4,1,7,7,7,5,5,5,
{8}4bz8[8:2]/6bz2[8:2],,,,,,
{16}1h[16:3],,,,
{12}8,1,8-4[8:1],1h[6:1],,8,1h[6:1],,5-7[8:1],1h[6:1],,5,1-3[8:1],,8-4[8:1],1,,8,1,1,8,1h[6:1],,8,2,1,1,8h[6:1],,1,8h[6:1],,4-2[8:1],8h[6:1],,4,8-6[8:1],,1-5[8:1],8,,1,8,8,1,8h[6:1],,1,7,8,8,1h[6:1],,8,1h[6:1],,5-7[8:1],1h[6:1],,5,1-3[8:1],,8-4[8:1],1,,8,1,1,8,1h[6:1],,8,2,1,1,8h[6:1],,1,8h[6:1],,4-2[8:1],8h[6:1],,4,8b-6[12:1],,1b-5[12:1],,1b,,8,8,8,5,5,5,7,5,6-2[12:1],6h[12:1],,,7,5,6-2[12:1]*-2[12:1],6h[12:1],,,8h[4:1],,6,6h[4:1],,4v6[8:1],4z8[6:1],,,,,,6,5,6,4,5,4,7,6,5,3,2,1,7b,8,7,1,8,1,7b,7,6b,6,5b,5,4b,4,4,7,5,6,4,4,5,3,4,2,8,1,7,5,5,6,4,5,4,6,5,7,1b,8,2,4,4,3,6b,5,8,1>8[16:5],1,8,1b,,,,,,
{32}1,2,3,4,5,6,7,8,
{16}1h[4:1],,,,
{16}5b,,,
{12}3,4,4,4,3,3,4,2h[6:1],,8,2,1,3,6,5,7,1,8,2,5,4,6,1,1,1,1,1,1,1,4,3,6h[6:1],,
{24}8,1,
{12}2,5,3,4h[4:1],,,2,8,4,6,8,4,
{12}1h[6:1],,
{12}6,5,5,5,6,6,5,7h[6:1],,1,7,8,6,3,4,2,8,1,7,4,5,3,8,8,8,8,8,8,8,5,6,3h[6:1],,
{24}1,8,
{12}7,4,6,5h[4:1],,,7b,1,5,3b,1,5,
{12}8,8,8,1b,7,5,1b,3,5,2,4,1,8h[6:1],,1,8,3,6,5,5,5,7,5,8,1h[6:1],,8,1,6,3,4,4,4,2,4,1,8,8,8,1,1,1,7,8,5,1,4,3,5,5,5,5,5,5,5,4,7,2h[6:1],,
{24}6,5,
{12}4b,1,1,8h[6:1],,2,8,1,4,8,6,4,8b,8,8,1b,1,1,7b,7,7,2b,2,2,
{32}6b,5,4,3,2,1,8,7,6pp3[8:3],5,4,3,2,1,8,7,
{8}6/2h[4:1],,,,1bs5[1:3],,,,,,,,,,,,,,,,,,,,,,,,,,,,,,,,
{12}5,6,5,6h[4:1],,5,5h[4:1],,4,4h[4:1],,5,5h[4:1],,6,7,8,1,3h[4:1],,4,4h[6:1],,5,1,8,7,2,3,4,7,6,5,3,4,5,6,5,4,3,2,1,8,7,6,3,4,5,
{12}8h[4:1],,1,1h[4:1],,2,2-4[8:1],,1,2,,1,1h[4:1],,8,8h[6:1],,7,7-5[8:1],,8,7,,4,4h[4:1],,3,3h[4:1],,4,4h[4:1],,5,5h[4:1],,6,6h[4:1],,5,5h[6:1],,4,4h[4:1],,3,3h[6:1],,2,2-4[8:1],,1,2,1,8,7,5,6,5h[6:1],,7,7-5[8:1],,8,7,8,1,2,4,3,4,2,4,3,2,1,4,5,6,8,1,2,5,6,7,2,3,4,6,7,8,5h[4:1],,1,1-5[8:1],,,
{12}1b/8h[6:1],,,8h[6:1]/1-3[8:1],,,
{4}8h[6:1]/1,8h[6:1]/1-6[8:1],
{12}8-4[8:1]/1,,3-8[8:1],3,,5-1[8:1],5,,2-6[8:1],2,,8,
{4}8h[6:1],8h[6:1]/2-5[8:1],8h[6:1]/2,8h[6:1]/4,
{12}4/8,4,5,6,6,5,4,4,5,6,6,5,5h[6:1]/4-2[8:1],,,
{4}5h[6:1]/4,5h[6:1]/4-7[8:1],
{12}5-1[8:1]/4,,2,2h[6:1],,8,8,1,7-3[8:1],7,,1-6[8:1],1,,5,5h[6:1],,4,5,5,4,3,3,4,5,5,3,4,4,3,2,2,3,4,2,5,1,6,8,7-4[12:1],,7,1-5[12:1],,1,8,8,8,8h[6:1],,1,7v4[12:1],,7,1-5[12:1],,1,8,8,8,8h[6:1],,1,8-4[12:1],,8,2-5[12:1],,2,1,1,1,1h[6:1],,2,8-4[12:1],,8,2v5[12:1],,2,1,1,1,1h[6:1],,2,1b,2,8,5b,6,4,8b,1,7,4b,5,3,7b,8,6,3b,4,2,6b,5,7,2b,1,3,8b,8,8,7b,7,7,6b,6,6,5b,5,5,
{32}1b,8,7,6,5,4,3,2,1,8,7,6,5,4,3,2,1,8,7,6,5,4,3,2,
{8}1b/5b,
{12},
{48},
{12}3b/7b,4,5,36,5,4,
{16}4-8[8:1]/5,,,3,34,,,2-5[8:1],6-1[8:1],,,2,6,,,4,7-2[8:1]/3-6[8:1],,,,37,,,,
{12}37,5,4,63,4,5,
{16}5-1[8:1]/4,,,6,65,,,7-4[8:1],3v8[8:1],,,7,3,,,5,2v7[8:1]/6-3[8:1],,,,62,,,,
{12}62,5,4,63,4,5,
{16}5-1[8:1]/4,,,6,65,,,7v4[8:1],3-8[8:1],,,7,3,,,5,2-7[8:1]/6v3[8:1],,,,62,,,,
{12}62,4,5,36,5,4,
{16}4-8[8:1]/5,,,3,34,,,2-5[8:1],6-1[8:1],,,2,6,,,4,7v2[8:1]/3v6[8:1],,,,37,,,,
{12}81,7,7,81,2,2,
{16}8-4[8:1]/1,,,1,81,,,2-4[12:1],1-5[8:1],,,2-6[8:1],1-7[12:1],,,2,1w5[8:1],,,,1,,,,
{12}18,2,2,18,7,7,
{16}1-5[8:1]/8,,,8,18,,,7-5[12:1],8-4[8:1],,,7-3[8:1],8-2[12:1],,,7,8w4[8:1],,,,8,,,,
{12}81,7,7,81,2,2,
{16}8-4[8:1]/1,,,1,81,,,2-6[8:1],1-5[8:1],,,2-4[12:1],1-7[12:1],,,2,1w5[8:1],,,,1,,,,
{12}18,2,2,18,7,7,
{16}1-5[8:1]/8,,,8,18,,,7-3[8:1],8-4[8:1],,,7,8,,,,7b/8b,,,2b/6b,,,1bs5[16:3]/5b,,,,,,7b,,,8-4[8:1],8,,,8,
{24}3,2,1,8,7,6,
{16}1-5[8:1],,,,
{24}1/4<7[8:1],3,2,
{16},,
{24}4/8-4[8:1]*-3[8:1],1,2,
{16}3,,8,,,,
5-1[16:1],,,5,
{24}2,3,4,5,6,7,
{16}4-8[16:1],,,4,
{24}1,2,3,4,5,6,
{16}1-5[8:1],,,,
{24}1/4<7[8:1],3,2,
{16},,
{24}4/8w4[8:1],1,2,
{16}3,,8,,,,
1-5[16:1],,,1,
{24}6,7,8,1,2,3,
{16}8-4[16:1],,,8,
{24}5,6,7,8,1,2,
{16}5-1[8:1],,,,
{24}5/8>3[8:1],7,6,
{16},,
{24}8/4w8[8:1],5,6,
{16}7,,4,,,,
4-8[16:1],,,4,
{24}7,6,5,4,3,2,
{16}5-1[16:1],,,5,
{24}8,7,6,5,4,3,
{16}8-4[8:1],,,,
{24}8/5>2[8:1],6,7,
{16},,
{24}5/1w5[8:1],8,7,
{16}6,,1,,,,
{24}8-4[8:1]*-4[8:1],7,6,5,4,3,
{16}8,,,,
{24}8-4[8:1],1,2,3,4,5,
{16}8,,,,
{24}8-4[8:1]*-4[8:1],7,6,5,4,3,
{16}8,,,,
{24}5/1-5[8:1],62,37,
{16}84,,1,,,,
{24}1-5[8:1]*-5[8:1],2,3,4,5,6,
{16}1,,,,
{24}1-5[8:1],8,7,6,5,4,
{16}1,,,,
{24}1-5[8:1]*-5[8:1],2,3,4,5,6,
{16}1,,,,
{24}6/2-6[8:1],73,48,
{16}15,,2,,,,
{12}2b/5b,3,3,3h[6:1]/4,,,4b/7b,6,6,6h[6:1]/5,,,6b/1b,7,7,7h[6:1]/8,,,8b/3b,2,2,2h[6:1]/1,,,8b-4[8:1],8,8,1b-5[8:1],1,1,2b-6[8:1],2,2,3b,3,3,
{24}83,7,6,5,4,3,1,8,7,6,5,4,
{32}73,6,5,4,3,2,1,8,7,6,5,4,3,2,1,8,3b/7b,4z8[16:3]/6z2[16:3],5,,
