&title=萤火虫の怨
&artist=闫东炜
&first=0
&lv_2=6
&des_2=albertoBradish
&inote_2=
(100){4},,,,,,,,{2}1x,
2,
3,4,
8x,7,
6,5,
1,7,
2,6,
4/5,6/3,
2/7,1xh[4:1]/8xh[4:1],
1x,2,
3x,4,
8x,7,
6x,5,
6x/7x,3x/2x,
5x/6x,3x/2x,
5x,4x,
{1}5x-8[2:1]/4x-1[2:1],
{2}1x,8,
8/1,5h[4:1]/4h[4:1],
8,1,
4/5,1h[4:1]/8h[4:1],
7,1,
6/5,3/4,
5,4,
{1}5x<8[2:1]/4x>1[2:1],
{2}4x/3x,5x/6x,
5x/3x,4x/6x,
5x/6x,4x/3x,
4x/6x,5x/3x,
6/8,3/1,
7/5,2/4,
3/1,6/8,
2/4,7/5,
{4}1,1x-5[2:1],,,8,
8x-4[2:1],,,6,
6x<1[2:1],,,3,
3x>8[2:1],,,{2}5xh[4:1],
{4}5,5,
{2}4xh[4:1],{4}4,4,
5/6,5x/6x,4,4,
4/3,4x/3x,{2}5,
{1}1bx/8bx,
8bx/1bx,
{4}1b,2,3,4,
5,6,{2}7h[4:1],
{4}8,7,6,5,
4,3,{2}2h[4:1],
{4}8x,7,6,5,
1x,2,3,4,
8x/1x,7/2,5x/4x,6/3,
{1}2x-5[2:1]/7x-4[2:1],
{4}4b,6,8,2,
4,4,5,5/4,
8,2,4,6,
8,8,1,1,
2b/7b,3,4,4,
6,6,7,7,
8/1,5/4,6/3,7/2,
{1}8-4[2:1],
{4}4,3/4,5,5,
5,6/5,4,4,
4/5,3/6,1/8,8/1,
1/8,2/7,4/5,6/3,
{1}2b/7b,
E
&lv_3=9+
&des_3=albertoBradish
&inote_3=
(100){4},,,,,,,,{2}8/1,
7,
{4}6,5,{2}5h[4:1],
1/8,2,
{4}3,5,{2}5h[4:1],
{4}E1,E3,E5,E7,
E1,E7,E5,E3,
{2}1xh[4:1]/2xh[4:1],8h[4:1]/7h[4:1],
{4}5/6,4/3,1/2,8/7,
1bx,1,7,7,
{2}1-5[8:1],7-3[8:1],
{4}5x,5,3,3,
{2}5-1[8:1],3-7[8:1],
{4}5bx,4,2,1,
{8}6,6,3,3,{4}5,5/4,
2/1,8/7,3/4,5/6,
1xh[2:1],8,{2}8x-5[8:1],
{4}4x,6,4x,6,
{8}4x,5,{4}4,{2}4>1[8:1],
{4}8x,2,8x,2,
{8}8x,1,{4}8,{2}8<5[8:1],
{4}4x,2/5,5x,7/4,
{8}8x,8,3x,3,5x,5,{4}4,
6xh[8:1],6/5,3xh[8:1],3/4,
{8}6h[8:1],3h[8:1],5h[8:1],4h[8:1],7h[8:1],2h[8:1],8h[8:1],1,
7bx,7h[4:1],,8,2,2h[4:1],,8,
6,6h[4:1],,1,3,3h[4:1],,8,
6x,5/6h[4:1],,,1,8/1h[4:1],,,5,
3/5h[4:1],,,2,8/2h[4:1],,,5x,
5x<8[8:1],,,2,2h[4:1],,,4x,
4x>1[8:1],,,7,7h[4:1],,,E7,
C,,E3,C,E7,,E5,
{1}Cfh[2:1],
{8}7bx/8bx,1bh[4:3]/6bh[4:3],,,,,,,7b/8b,
1bh[2:1]/6bh[2:1],,,,,7/8,8/1,
2b/1b,8bh[4:3]/3bh[4:3],,,,,,,2b/1b,
8b/3bh[4:1],,1,{16}8xh[16:3],,,7xh[16:3],,,{8}6x,
5bx,3,5,3,4/6,6h[8:1]/4h[8:1],,3/5,
4,6,4,6,5/3,5h[8:1]/3h[8:1],,6/4,
1bx,7x,1x,7x,8x/2x,3xh[8:1]/1xh[8:1],,7x/1x,
8bx,2x,8x,2x,1x/7x,8xh[8:1]/6xh[8:1],,2x/8x,
Cf,,,,,,,8b/1b,
{1}6b/3b,
{8}1b/8,8/1,{4}1/8,{8}7,7,2,2,
{2}8x<4[8:1],1x>5[8:1],
{8}1x/8x,8/1,{4}8/1,{8}2,2,7,7,
{4}3xh[2:1],8,{2}8-4[8:1],
{8}3x/5,5/3,{4}3/5,{8}6x/4,4/6,{4}6/4,
{8}5,4,3,2,{4}1,8/1,
{2}1b/2b-5[8:1],8b/7b-4[8:1],
6-1[8:1]/5-1[8:1],3-8[8:1]/4-8[8:1],
{8}6x,5,3x,5,7x,5,2x,4,
6x/5,5/6,,3x/4,{4}4/3,5/4,
{8}3x,4,6x,4,2x,4,7x,5,
3x/4,4/3,,6x/5,{2}5x-1[8:1]/4x-8[8:1],
{8}3b,4,{4}5,{8}6,5,{4}4,
{8}5x,6,4x,3,8/1,8/1,{4}8/1,
{8}1,2,3,4,5,6,7,8,
{1}Cf,
{4}7b/8b,7/8,{8}7/8,1/2,{4}4h[8:1]/3h[8:1],
2b/1b,2/1,{8}2/1,8/7,{4}5h[8:1]/6h[8:1],
7b/1b,2/8,{8}5/7,6h[8:1]/4h[8:1],,4/5,
{4}2b/8b,7/1,{8}4/2,1h[8:1]/3h[8:1],,3/1,
{1}Cf,
E
&lv_4=12
&des_4=albertoBradish
&inote_4=
(100){4},,,,,,,,{2}7h[2:1],
6h[2:1],
{4}5h[2:1],{8}B5,C,{4}B1,1x,
{2}2h[2:1],3h[2:1],
{4}4h[2:1],{8}B4,C,{4}B8,8x,
{8}1,1,7,7,2,2,6,6,
3,3,4,4,5,5,6,6,
{16}7x,7x,{8}7xh[4:1],8,1,{16}2x,2x,{8}2xh[4:1],1,8,
7h[8:1],8x,2h[8:1],1x,6h[8:1],5x,{16}3x,3x,4x,4x,
2b,4,2,4,{8}2h[8:1],{16}4,5,{8}6h[8:1],{16}8,1,{8}2h[8:1],{16}4,5,
6,6h[16:3],,8,{8}8p4[16:3],2,{2}2xh[4:1],
{16}7,5,7,5,{8}7h[8:1],{16}5,4,{8}3h[8:1],{16}1,8,{8}7h[8:1],{16}5,4,
3,3h[16:3],,1,{8}1q5[16:3],7,{2}7xh[4:1],
{16}6,6,4,5,{8}4,{16}6,4,{8}6,{16}3,4,{8}3,{16}6,5,
7,7,5,5,{8}1h[8:1],3,{16}2,2,4,4,{8}8h[8:1],6,
{16}1xV35[16:3],1x,,7,{4}7,{16}6xV82[16:3],6x,,4,{4}4,
{8}Ch[2:1],,,E7,{4}E3,C,
{8}2xh[8:1],C,,C,3xh[8:1],C,,C,
4xh[8:1],2x,5h[8:1],7x,4h[8:1],3x,5h[8:1],6x,
7xh[8:1],C,,C,6xh[8:1],C,,C,
5xh[8:1],7x,4h[8:1],2x,5h[8:1],6x,4h[8:1],3,
{16}7,7,,4x,{8}4xh[8:1],5,{16}2,2,,5,{8}5x,4,
{16}1x,6,1,6,8x,8,7,7,1x,2,3,4,7x,6,5,4,
1x,1x,{8}1xh[4:1],B7,B3,{16}8x,8x,{8}8xh[4:1],B2,B6,
3xh[8:1],2,5xh[8:1],4,6xh[8:1],8,{16}7,6,5,4,
1x>6b[16:3],1x,8x,8x,,,,,8x<3b[16:3],8x,1x,1x,,,,,2x>6b[8:1],
2x,8x,8x,,,,,7x<3b[8:1],7x,1x,1x,,,,,8<4[8:1],
8,1,2,,,,,1>5[8:1],1,8,7,,,,,5<1[8:1],
5,4,3,,,,,4>8[8:1],4,5,6,,,,,7x,
7x,8x,8x,E7,E6,E5,E4,2x,2x,1x,1x,E3,E4,E5,E6,
7x,7x,1x,1x,E7,E6,E5,E4,2x,2x,8x,8x,E3,E4,E5,E6,
8bx,8x,6,6,E5,E4,E3,E2,7bx,7x,5,5,E4,E3,E2,E1,
6bx,6x,4,4,E3,E2,E1,E8,5bx,5x,3,3,{4}3h[4:1],
{12}8b,1,2,3,4,5,6,7,8,1,2,3,
5,4,3,2,1,8,7,6,5,4,3,2,
1xh[12:1],8xh[12:1],7xh[12:1],6xh[12:1],5xh[12:1],4xh[12:1],3xh[12:1],2xh[12:1],1xh[12:1],8xh[12:1],7xh[12:1],6xh[12:1],
4xh[12:1],5xh[12:1],6xh[12:1],7xh[12:1],8xh[12:1],1xh[12:1],2xh[12:1],3xh[12:1],4xh[12:1],5xh[12:1],6xh[12:1],7xh[12:1],
{4}Cf,1/2,{8}7/8,6p1[12:1]/5v2[12:1],,,{4}Cf,
8/7,{8}2/1,3v8[12:1]/4v1[12:1],,,Cf,
1x/2x,7/8,5/6,8/7,4/3,5/6,3/4,
1/2,3/4,2/1,4/3,1/2,5/6,4/3,7/8,
Cf,,,,,,,E7f/B7/B6,
{2}E3f/B2/B3,{16}3,3,6,6,{32}4x,5x,4x,5x,4x,5x,4x,5x,
{16}4bxh[4:1],6x,7x,8x,{8}1xh[4:1],{16}2,3,{8}4h[4:1],{16}5,6,{8}7h[4:1],{16}8,1,
2,2/7,,1,{8}8/2,5/3,{2}7-4[12:1]/5v8[12:1],
{16}5bxh[4:1],3,2,1,{8}8h[4:1],{16}7,6,{8}5h[4:1],{16}4,3,{8}2h[4:1],{16}1,8,
7,7/2,,8,{8}1/7,4/6,{2}2-4[12:1]/4-8[12:1],
{16}8x/1bxh[4:1],7,6,5,{8}4h[4:1],{16}3,2,{8}1h[4:1],{16}8,7,{8}6h[4:1],{16}5,4,
3,3,5,5,4,4,{8}3/5,{16}6,6,4,4,5,5,{8}6/4,
{16}2/8>5[8:1],8/2,,,,,,,2/8-2-4-6[16:3],8/2,,,,,,,{8}8xh[2:1],
,,E7,{4}E6,4/5,
{16}8bx,2,7,3,5/6,6/5,,,2/1,1/2,,,6/5,5/6,7,8,
{2}1-6[12:1]*-5[12:1],4-7[12:1]*-8[12:1],
{16}1bx,7,2,6,{8}4/5,{16}5,6,7/8,8/7,,,3/4,4/3,2,1,
{2}8-3[12:1]*-5[12:1],5-3[12:1]*-1[12:1],
{16}1/8,2,3,4,{8}5/6h[4:1],{16}8,1,2,2,4,4,3,3,5,5,
4,3,2,1,8,8,{8}1/7,{16}5,6,7,8,1,1,{8}8/2,
{16}1,2,3,4,1,8,7,6,4,3,2,1,{8}8w4[12:1],7x/1x,
{4}8x,{24}E5,E6,E7,E8,E1,E2,E3,E4,E5,E6,E7,E8,{4}E1/Ch[8:1],
{8}1b/2b,3/4,7b/8b,3/4,1b/2b,7b/8b,5/6,3b/4b,
8b/7b,6/5,2b/1b,6/5,8b/7b,2b/1b,4/3,6b/5b,
7x-2[12:1],7,3x-6[12:1],3,7x-4[12:1],7,3x-8[12:1],3,
7,6x/5x,2,3x/4x,6b/8b,3b/1b-5[12:1],,,{1}Cf,
E
&lv_5=14
&des_5=albertoBradish
&inote_5=
(100){4},,,,,,,,,E1,
,C,
,E5,6>3[8:1],C,
,E1,,C,
,E5,3<6[8:1],C,
{8}E1,E8,E7,E6,E4,E3,E2,E1,
5h[4:1],7,1h[4:1],3,5h[8:1],7h[8:1],1h[8:1],3h[8:1],
5-2[12:1],6,7/5,6,4-7[12:1],3-8[12:1],2/4,3,
Ch[4:3],B4,B1,E4,E2,B3,B2,E3,
{16}2bx-8[12:1],3,4,6,{8}7/2-4[12:1],{16}7,6,{8}2-6[12:1],{16}6,5,{8}2,{16}5,4,
3<7[12:1],1,,1,{4}3,{8}6>2[12:1],8,{4}6,
{16}7b-1[12:1],6,5,3,{8}2/7-5[12:1],{16}2,3,{8}7-3[12:1],{16}3,4,{8}7,{16}4,5,
6-3[12:1],8,,8,{4}6,{8}3-6[12:1],1,{4}3,
{8}8-6[12:1],1,8/2-8[12:1],3,2/4-2[12:1]*-7[12:1],5,{4}4,
{16}1-5[12:1],8,{8}7-3[12:1],1,7,{16}1-5[12:1],2,{8}3-7[12:1],1,3,
{16}8b>5[8:1],8h[16:3],,,,,,,1b<4[8:1],2,{8}1h[8:1],,,{4}6/5-3[12:1],
2/5-7[12:1],8/5-1[12:1],1/5,
{16}1,1,2x/E8,3,{8}4,{16}1x/E7,2,{8}3,{16}8x/E6,1,{8}2,{16}E5/7x-5[12:1],8,
{8}1h[8:1],7x-2[12:1],3,4/7x-4[12:1],5h[4:1],7x-1[12:1],{16},,7x/5,4,
3,3,2x/E5,1,{8}8,{16}3x/E6,2,{8}1,{16}4x/E7,3,{8}2,{16}E8/5x-7[12:1],4,
{8}3h[8:1],5x-2[12:1],1,2/5x-8[12:1],3h[4:1],5x-3[12:1],{16},,5x/2,1,
7x,6,5,4,{8}4h[8:1],{16}3,3,6,5,7,3,4,2,6,8,
5,1,6,2,7,3,8,8,4,8,3,7,2,6,1,1,
2/5-2[12:1],6/3,{8}4/7-4[12:1],5,{16}7,8,1-6[12:1],2,{8}3-8[12:1],1,3,
5-7[12:1],4-2[12:1],5-1[12:1],4-8[12:1],5<5[6:1],4,{4}5,
{16}1b-3[16:1],3-5[16:1],5-7[16:1],7-1[16:1],,,,,3-5[16:1],5-7[16:1],7-1[16:1],1-3[16:1],{4}3,
{16}5-7[16:1],7-1[16:1],1-3[16:1],3-5[16:1],{4}5,{16}8-4[12:1],2,4,5,{4}8/7,
{16}8b-6b[16:1],6-4b[16:1],4-2b[16:1],2-8b[16:1],{4}8,{16}6-4b[16:1],4-2b[16:1],2-8b[16:1],8-6b[16:1],{4}6,
{16}4-2b[16:1],2-8b[16:1],8-6b[16:1],6-4b[16:1],,,,,1s5b[8:1],7,5,3,{4}1,
{16}5b-3[16:1],3-7[16:1],7-4[16:1],4-8[16:1],,,,,1<3[6:1],2,3,4,{4}1/5h[8:1],
{16}8>6[6:1],7,6,5,{4}8/4h[8:1],{16}5-8[12:1]*-2[12:1],4/6,7/3,2/8,{4}5,
{16}4b<2[6:1],3,2,1,{4}4/8h[8:1],{16}5b>7[6:1],6,7,8,{4}5/1h[8:1],
{16}8b-2[16:1],2-6[16:1],6-1[16:1],1-5[16:1],{48},,,,,,,,,,,,4x,3x,2x,1x,8x,7x,6x,5x,4x,3x,2x,1x,{4}8x/Ch[8:1],
{12}8bx/1h,{24}3h,8bxh[4:3],{12}5h,3h,5h,7h,5h,7h,1h,5h,3h,1h,
1bx/8h,{24}6h,1bxh[4:3],{12}4h,6h,4h,2h,4h,2h,8h,4h,6h,8h,
8b/1h,{24}2h,4,{12}3h,7h,{24}6h,4,{12}5h,2h,{24}3h,5,{12}4h,7h,{24}6h,4,{12}5h,
8b/1h,{24}2h,1,{12}3h,8h,{24}7h,8,{12}6h,5h,{24}4h,2,{12}6h,4h,{24}5h,7,{12}3h,
{48}2b,3,4,5,,,{8}7,{48}8/7b,6,5,4,,,{8}2,8/2,4/2-5[12:1],5/7,8/2,
{48}7b,6,5,4,,,{8}2,{48}1/2b,3,4,5,,,{8}7,1/7,4/2-5[12:1],5/7,8/2,
{48}8b/4b,7/3,6/2,5h[16:1]/1h[16:1],,,,,,,,,1b/5b,2/6,3/7,4h[16:1]/8h[16:1],,,,,,,,,{8}5/7,7/1,1/3,3/5,
{48}1b/5b,2/6,3/7,4h[16:1]/8h[16:1],,,,,,,,,8b/4b,7/3,6/2,5h[16:1]/1h[16:1],,,,,,,,,{16}4/2,4/2,3,3,5/7,5/7,6,6,
{8}Cf,{4},,,{48}8bz4[16:5],7x,6x,5x,,,1bs5[16:3],
2x,3x,4x,{4},{16},,{24},{16}2,2,5,5,{64}1/7,2,3,4,,,,,7,6,5,4,3,2,1,8,
{16}7bx-4[12:1],8x,6,5,{8}7-1[12:1],{16}1,3,{8}7v4[12:1],{16}5,3,{8}7,{16}3,1,
6/8-5[12:1],6/8,,2/8,{8}8/2-6[12:1],1,{4}2/4-7[12:1]*-1[12:1],4,
{16}2b-5[12:1],1,3,4,{8}2-8[12:1],{16}8,6,{8}2v5[12:1],{16}4,6,{8}2,{16}6,8,
3/1-4[12:1],3/1,,7/1,{8}1/7-5-1[6:1],8,{4}7/2-4-8[6:1],{8}2/8,{16}7,6,
5b,1,2,3,{8}5/4-7[12:1],{16}6,6,{8}4-1[12:1],{16}2,2,{8}4,{16}7,7,
8-3[12:1],7,6-1[12:1],5,{4}4,{16}4-7[12:1],3,2-5[12:1],1,{4}8,
{8}8b/6b-4-7-1[16:3],2/4,{4}6h[8:1],{16}3-5-1-6[16:3],{32}8x/3,7x,{8}6x,{4}3h[8:1],
{16}4bV28[12:1],6,,4,{8}6z2[8:1],7,{4}6/5xh[8:1],{16}5,4,3,2,
1/6b,6,8,8,{32}E5,E6,{16}E7,1,1,{32}E6,E7,{16}E8,3,3,{32}E7,E8,{16}E1,5,5,
5-2-8-4[16:3],{32}7,6x,{16}5x,{32}7,6x,{4}5x,{16}5-1[12:1],3,1,7,{8}5,{16}8x,8x,
1x/7x,5/6,5/4,3/4,{8}1/3,{32}7x,7x,{16}8,1/6,{32}5x,5x,{16}4,6,8/3,{32}4x,4x,{16}5,2,
2x/5x<1[12:1],4,3-7[12:1],2,{8}1x-5>2-6<1b[8:3],3x,{2}1x,
{16}2b/4b,3/5,4/6,5/7,{8}6/8-4[12:1],{16}5,5,8<5[12:1],3,2,1,{32}8/2,3,{16}4,{32}2,1,{16}8,
8x/4x,1/5,2/6,3/7,1/5,1/5,{8}7/3,{16}1x/5x,2/6,3/7,4/8,2/6,2/6,{8}8/4,
{16}1bh[16:1],2h[16:1],5h[16:1],4h[16:1],7h[16:1],8h[16:1],6h[16:1],5h[16:1],7-4b[12:1],8/4,1/3-8b[12:1],2,{8}7-4-1-6-3-8-5-2[8:7],3,
{1}7bxh[4:3],
{48}7b,6,5,4,,,{16}2,2,{48}1/2b,3,4,5,,,{16}7,7,1b/7,3,{8}5/7b-4[12:1],4/2,1/7b,
{48}2b,3,4,5,,,{16}7,7,{48}8/7b,6,5,4,,,{16}2,2,8b/2,4,{8}5/7b-4[12:1],4/2,1/7b,
{48}1b/5b,2/6,3/7,4h[16:1]/8h[16:1],,,,,,{16}8/4,{48}8b/4b-7-2-5b[16:3],7/3,6/2,5h[16:1]/1h[16:1],,,,,,{16}1/5,8x,2x,{8}4x,{16}3x,2,{8}1/5,
{48}8b/4b,7/3,6/2,5h[16:1]/1h[16:1],,,,,,{16}1/5,{48}1b/5b,2/6,3/7,4h[16:1]/8h[16:1],,,,,,{16}8/4,2b/6b,{32}1/7,2/6,{8}5b-1[12:1]/3b-7[12:1],7v4[16:1]/1v4[16:1],3b/5b,
{1}Cf,
E
