&title=Teriqma
&artist=owl*tree
&first=0.03
&des=Hinata
&lv_5=13+
&inote_5=(128)
{8},,,,,,
2h[4:3]/6,5,4<3[4:4],,,,,,,,4h[2:1],,,,5p7[2:1],,,,2,,3,,4>6[4:3]/6,,,,5h[2:1],,,,,,
{8}5/6,5/4,4q1[2:1]/3,,3,,4,,4,,1<4[2:1]/4,,4,,3,,2,,
{8}1/5,1/5,2/6,2/6,3/7,3/7,8p6[8:4]/4p2[8:4],8/4,8/4,,,,,,7b/3b,,
{24}6/4,,,5,,3,
{16}4>1[8:1],,5,,4/6,,,,7,,8/6,,3,,2/4,,8-5[8:1]*-3[8:1],,1/7,,8,,,,
4,,3/5,,
{24}6,,,4,,5,
{16}3-7[8:1],,4,,3/5,,,,8/6,,7,,1>4[8:1]/3,,2,,
{24}1/8,7,6,5,,,
{16}4-8[8:1]*<7[8:1],,,,4,,,,
{24}3/5,,,4,,6,
{16}5<8[8:1],,4,,5/3,,,,2,,1/3,,6,,7/5,,1-4[8:1]*-6[8:1],,8/2,,1,,,,
5,,6/4,,
{24}3,,,5,,4,
{16}6-2[8:1],,5,,6/4,,,,1/3,,2,,8<5[8:1]/6,,7,,
{24}8/1,2,3,4,,,
{8}5-1[8:1],,5/6,7,8/2-5[8:1],,1,8,7-4[8:1]/3,,3,2,1/5-1[8:1],,2,3,4-8[8:1]/8,
,6,5,4<7[8:1]/1,,3,4,5>2[8:1]/8,,1,8,7<4[8:1]/1,,8,1,2>5[8:1]/4,,6,7,
85,8,84,8,83,8,82,8,81,1,17,1,16,1,15,1,
{16}4,4,2,2,5,5,3,3,6,6,5,5,7,7,4,4,
{32}8,7,6,5,4,3,2,1,8w4[8:1],,,,1/7,,,,8,,,,,,,,
{16}2b/6b,,,,1q7[4:1],,,,7p1[4:1],,,,1,,,6,,,6,,
2,,1/3,,6,,5/7,,8/2,,
{32}1-5[8:1],,8,,2,,,,1/3,,,,
{16}3V57[4:1],,,,7V53[4:1],,,,1,,,7,,,8,,
6/4,,5,,2/4,,3,,
{32}5,6,7,8,1,2,3,4,
{16}5h[4:1]/1,,2,,
3h[8:1],,
{24},,5,3,,,
{16}4-1[8:1],,4-7[8:1],,,,,,,,
{16}2,2,4,4,3,3,6,6,5,5,7,7,1,,8/2,,
{24}7/3,,,6,,4,
{16}5V37[4:1],,3,,2/5,,,,
2,,6h[8:1]/4,,5,,6,,
{24}5-1[8:1],4,3,2,,,
{16}5,,,,2b/8b,,,,
{8}2h[8:1],1,7h[8:1],8,2h[8:1],1,7h[8:1],8,2h[4:1]/1,8,7h[4:1],8,
{32}1-5[8:1],2,3,4,5,,,,
{4}1b,
{8}7h[8:1],8,2h[8:1],1,7h[8:1],8,2h[8:1],1,7h[4:1]/8,1,2h[4:1],1,
{32}8-4[8:1],7,6,5,4,,,,
{4}8b,
{8}2h[8:1],4,6h[8:1],4,2h[8:1],4,6h[8:1],4,7h[2:1]/5,4,3,2,
{32}1-5[8:1],8,7,6,5,,,,
{4}1b/2b,
{8}7h[8:1],5,3h[8:1],5,7h[8:1],5,3h[8:1],5,2h[2:1]/4,5,6,7,
{32}8-4[8:1],1,2,3,4,,,,
{4}8b/7b,
{8}3h[2:1]/5,,,,7h[8:6],,,5,4,3,2v1[8:1],1,2v5[8:1]/8v5[8:1],,8b/2b,,
{8}6h[2:1]/4,,,,2h[8:6],,,4,5,6,7v8[8:1],8,7v4[8:1]/1v4[8:1],,1b/7b,,
{8}3h[8:7]/5,,6,,2,2,,5,4/6,3/7,2v5[8:1]/8v5[8:1],1,2v7[8:1]/8v3[8:1],,8b/2b,,
{8}6h[8:7]/4,,3,,7,7,,4,5/3,6/2,7v2[8:1]/1v6[8:1],8,7v4[8:1]/1v4[8:1],,1b/7b,,
{16}3/5,,4,6,5h[8:1],,7,4,6h[8:1],,2,4,3h[8:1],,7,5,6h[8:1],,2,1,2h[8:1],,7,8,7h[8:1],,2,4,3h[8:1],,1,,3,8,3,8,2,7,1,6,8,7,5,6,2,4,1,8,
{4}7h[2:1]/3h[2:1],,
{32}6/2,1/5,8/4,7/3,,,,,
{4}2b/6b,
{24}1>4[8:1],,,4,5,6,
{16}1/7,,8h[8:1],,6,,2h[8:1],,4>1[8:1],,3,3,4<7[8:1]/6,,5,,
{32}4/2,,,,3h[8:1],,,,8,1,2,3,4,5,,,
{16}4/6,,3/7,,
{24}8<5[8:1],,,5,4,3,
{16}8/2,,1h[8:1],,3,,7h[8:1],,5<8[8:1],,6,6,5>2[8:1]/3,,4,,
{32}5/7,,,,6h[8:1],,,,1,8,7,6,5,4,,,
{16}5/3,,2/6,,1h[2:1]/7h[8:4],,,,,,,,
{32}2-6[8:1]/6-2[8:1],3/5,4,,,,,,2b/6b,,,,,,,,
{16}4<7[8:1]/6,,5,,
{32}4/2,,,,3h[8:1],,,,8,1,2,3,4,5,,,
{16}4/6,,3/7,,
{24}8<5[8:1],,,5,4,3,
{16}8/2,,1h[8:1],,3,,7h[8:1],,5<8[8:1],,6,6,5>2[8:1]/3,,4,,
{32}5/7,,,,6h[8:1],,,,1,8,7,6,5,4,,,
{16}5/3,,6/2,,
{8}1s5[4:1],,,,7-3[8:1],,,,5,4/6,
{24}2,3,4,8/5,,,1/7,,,
{16},,4/6,,3/7,,
{8}8z4[4:1],,,,2-6[8:1],,,,4,5/3,
{24}7,6,5,1/4,,,
{32}8/2,,,,3,,3,,
{32}7b/5b,,,,,,,,
{32}2/4,,,,3,,5,,4,,6,,5,,5,,
{32}8,7,6,,2,,,,
{32}7,6,5,,1,,,,
{32}4,,,,3,,5,,
{32}4,3,2,,7,,,,
{32}5,4,3,,8,,,,
{32}1/7,,,,2/6,,,,5/3,,,,
{32}4,5,6,,2,,,,
{32}5,6,7,,1,,,,
{32}8/2,,,,3/7,,,,4/6,,,,
5b/7b,,,,4b/2b,,,,
{24}1b-5[8:1]/8b-4[8:1],2/7,3/6,4/5,,,
{4}1b/8b,
{8}2>5[8:1],3,1h[8:1],,6<1[8:1],7,5h[8:1],,2<7[8:1],1,3h[8:1],,3<6[8:1],4,2h[8:1],,
{8}7<4[8:1],6,8h[8:1],,3>8[8:1],2,4h[8:1],,7>2[8:1],8,6h[8:1],,6>3[8:1],5,7h[8:1],,2,8,
{8}1-5[8:1],1,7-4[8:1],7,2-6[8:1],2,8-3[8:1],8,5-2[8:1],5,7-4[8:1],7,1-6[8:1],1,4,4,
{16}2,2,5,5,3,3,7,7,4,4,6,6,2,2,8,8,
{32}1,2,3,4,5,6,7,8,1/6,5,4,3,2,1,8,7,6-3[8:1]/2-7[8:1],,,,3/7,,,,6b/2b,,,,,,,
E
