&title=Just Be Friends
&artist=Dixie Flatline
&first=0.044
&des=Kurage
&lv_5=13
&inote_5=(128)
{4},1q3[16:33]/5q7[16:33],,,,,,,,,,{8}84,,
26,2-6[8:1],,8>3[8:1],,4-1[8:1],,5pp4[16:7],,1,1h[8:1],,2h[8:1],,3h[8:1]/5h[8:1],,
73,7-3[8:1],,1<6[8:1],,5-8[8:1],,4qq5[16:7],,8,8h[8:1],,7h[8:1],,56,,
24,2>5[8:1],,7-3[8:1],,1<6[8:1],,5pp4[16:7],,4,4h[8:1],,3h[8:1],,2h[8:1]/4h[8:1],,
75,7<4[8:1],,2-6[8:1],,8>3[8:1],,4qq5[16:7],,5,5h[8:1],,6h[8:1],,4>1[8:1]/7<4[8:1],,
47,,34,5,24,1,34,5<8[8:1]/2,,1-6[8:1],2-5[8:1],1,2,7,4>1[8:1]/7<4[8:1],,
47,,34,1,24,5,34,2>5[8:1]/5,,2<7[8:1],7>2[8:1],2,5,,5<8[8:1]/2>5[8:1],,
25,,65,4,75,8,65,4>1[8:1]/7,,8-3[8:1],7-4[8:1],8,7,2,5<8[8:1]/2>5[8:1],,
,,4>1[8:1]/7<4[8:1],,,,5<8[8:1]/2>5[8:1],,,,1-5[8:1],,1w5[8:1],,,,
{16}4,8,8,,71,,7,5,,,54,,36,,3,4,
{8}3h[4:1],5,7h[4:1],5,5>1[16:3],6,6,,
{16}6,,8,,78,,7,5,,,45,,36,,3,4,
{8}3h[4:1],5,7h[4:1],5,5>1[16:3],6,6,,
{16}8,,8,1,7,,57,,6h[8:1],,5,5,,34,,2,
4,3,4,3,7,5,7,5,6h[8:1],,5,5,,,18,,
27,,6,5,6,,45,,36,,3,4,,6,6,5,
{8}7,46,2,37,8<5[8:1]/4>1[8:1],,84,,
{16}5,1,1,,28,,2,4,,,45,,63,,6,5,
{8}6h[4:1],4,2h[4:1],4,4<8[16:3],3,3,,
{16}3,,1,,21,,2,4,,,54,,63,,6,5,
{8}6h[4:1],4,2h[4:1],4,4V68[16:3],3,3,,
{16}1,,1,8,2,,2,4,3h[8:1],,4,4,,65,,7,
5,6,5,6,2,4,2,4,3h[8:1],,4,4,,,81,,
72,,3,4,3,,6,5,7,,65,,2,,3,4,
{8}2,53,7,62,1>4[8:1]/5<8[8:1],,15,,
{8}4<7[8:1]/6,5,34,{16}2,2,{8}1>4[8:1],8,17,{16}6,6,
{8}5-1[8:1],4,35,{16}2,2,{8}8>3[8:1]*<5[8:1],7,8,,
{8}5>2[8:1]/3,4,65,{16}7,7,{8}8<5[8:1],1,82,{16}3,,
{8}3V52[32:7]/4,5,7,7-3[8:1],,78,,{16}2,4,
{8}2,56,8,1v4[8:1]/7v4[8:1],,17,,{16}6,5,
{8}6,34,7,3<6[8:1]/6>3[8:1],,36,,12,
6,78,3,24,6,57,3,4>5[16:7]/5<4[16:7],
{4},,,1b>4[8:1],
{8}1<6[8:1]/7-3[8:1],,17,,5pp4[8:2],3>1[32:3],5,3-7[8:1]*-8[8:1],
,3,,2v5[8:1]/6<1[8:1],34,,,7v4[8:1]/3>8[8:1],
65,,,{16}26,2h[16:3]/6,{8},4qq4[4:1],35,4<2[32:9]/6,
,8,8,,4,35,35,{16}6,6,
{8}4<6[32:3],3,24,{16}1-4[8:1]*-6[8:1],8,2,,1,,,,7-1[32:3],,
{8}3-5[32:3],7-3[8:1],3,7,,45,45,{16}6,5,
{8}7V58[32:7],2,2,2-6[8:1],,8-5[8:1],7-3[8:1],8,
7,4,45,3/6-2[8:1]*-2[8:1],,8,8<5[8:1],,
2-6[8:1]/8>3[8:1],1,28,,4qq5[8:2],6<8[32:3],4,6-2[8:1]*-1[8:1],
,6,,7q4[8:1]/3>8[8:1],65,,,2p5[8:1]/6<1[8:1],
34,,,{16}73,7h[16:3]/3,{8},5pp5[4:1],64,5>7[32:9]/3,
,1,1,,5,64,64,{16}3,3,
{8}5>3[32:3],6,75,{16}8<5[8:1]*>3[8:1],1,7,,8,,,,2-8[32:3],,
{8}6-4[32:3],2-6[8:1],6,2,,54,54,{16}6,6,
{8}4<6[32:3],3,24,{16}1<6[8:1]*>4[8:1],8,2,,1,,,,2v4[8:1],,
{8}4,6<1[8:1],8,4qq4[4:1],,4<3[4:2]/8qq8[4:1],,8b,
,,,,45,7,45,2,6-8[32:3]/5
,7,4-2[32:3]/6,3,1-5[8:1]/4,7,1<6[8:1]/6>3[8:1],,
16,,4-6[32:3]/3,5,2-8[32:3]/4,1,27,6<3[32:7],
,4-1[8:1],5-8[8:1],4,5,,2-5[8:1]/7-4[8:1],18,
27,,36,7,54,2,4-8[8:1]/5,6,3-1[32:3]/4
,2,5-7[32:3]/3,6,8-4[8:1]/5,2,8>3[8:1]/3<6[8:1],,
38,,5-1[8:1]/7-4[8:1],,5/7>2[8:1],,37,3,
1>4[8:1],8,7/1<6[8:1],2,1w5[8:1]/3,,1,,
3b/7b,
