&title=MxMxM Star
&artist=TJ.hangneil
&first=1.53
&des=Tail_R {8}4,,4,,,5,,4h[4:1], {8},5,4h[4:1],,5,4h[8:3],,, {8}5,,5,,,4,,5h[4:1], {8},4,5h[4:1],,4,4h[4:1],,, {8}3-8[8:1]/5,,3/5,,3-8[8:1]/5,6,5/3,4, {8}3-8[8:1]/5,6,5/3,4,5/3-8[8:1],6,3/5,, {8}6-1[8:1]/4,,6/4,,6-1[8:1]/4,3,4/6,5, {8}6-1[8:1]/4,3,4/6,5b,6V85[2:1],4V25[2:1],6,4, {16},,,,,,,,7/3,,2/6,,1,2,3h[4:1],, {8},7-3[8:1],3V15[4:1],4h[4:1],,,{16}4,,3,2, {8}1>4[4:1],5,6,7,8<5[4:1],4,3,2h[4:1], {8},6,3/7,2,3V14[2:1]/7,5V74[2:1],3,5, {16},,,,,,,,2/6,,7/3,,8,7,6h[4:1],, {8},2-6[8:1],6V84[4:1],5h[4:1],,,{16}5,,6,7, {8}8<5[4:1],4,3,2,1>4[4:1],5,6,7h[4:1], {8},3,6/2,7,{24}3,2,1,8,7,6,3,2,1,8,7,6, {8}2h[4:3],,,,,4,5,2h[8:7]/6h[8:7], {1}, {24}2h[4:3]/8h[4:1],,,,,,,,,7h[1024:1],6h[1024:1],5h[1024:1],,,,5,,,7,,,1h[8:5]/2h[8:3],,, {24},,,,,,,,,,,,2,,5,7,,4,2,,5,7,,4, {8}2h[2:1],4,4,4,4,5/3,6/4h[8:9],6, {8}6,6,6,8h[1024:1],2h[1024:1],6h[1024:1],3h[1024:1],7h[1024:1], {16}7h[2:1],,5,,5,,5,,5,,6/4,,5/3,,4h[8:5]/2,, {8}8,1,2,3,{24}3,2,1,8,7,6,3,2,1,8,7,6, {24}2h[8:1],,5,5,,,2h[8:1],,,6,,,2h[8:1],,7,7,,,2h[8:1],,,8,,, {24}2h[8:1],,7,7,,,2h[8:1],,,6,,,2-5[8:1],,5,5,,,2,,,,,, {24}7h[8:1],,4,4,,,7h[8:1],,,3,,,7h[8:1],,2,2,,,7h[8:1],,,1,,, {24}7h[8:1],,2,2,,,7h[8:1],,,3,,,7,,4,2,,5,7,,4,2,,5, {24}7-5[8:1],,4,4,,,7-1[8:1],,,3,,,7-5[8:1],,2,2,,,7-1[8:1],,,1,,, {24}7-5[8:1],,2,2,,,7-1[8:1],,,3,,,7-3[8:1]*-5[8:1],,4,4,,,7,,,,,, {24}2-4[8:1],,5,5,,,2-8[8:1],,,6,,,2-4[8:1],,7,7,,,2-8[8:1],,,8,,, {24}2-4[8:1],,7,7,,,2,,,6,,,2,,5,7,,4,2,,5,7,,4, {8}2bqq5[2:1],,5,,6,6,6,7-3[8:1], {8},3-7[8:1]/7,,1s5[4:1]/3,,7/1,6,6h[8:5], {8},,,,{24}3,2,1,8,7,6,3,2,1,8,7,6, {16}2b-6[8:1],,,7,2V41[8:1]/7,,1-5[8:1],,2,7,,6,6,,7/3,, {16}8-4[8:1]/2,2,,1,8<5[8:1],,3,,1,,2,,8/4,,2/6,, {16}7-3[8:1]/3,,,2,7V58[8:1]/2,,8-4[8:1],,7,2,,3,3,,2/6,, {8}1-3[8:1],2,8-5[8:1],7,4v2[8:1],3,6,7, {16}8/2-5[8:1],,,1,2,,8,,1/7-4[8:1],,,8,7,,1,, {8}2v4[8:1]/8,4V28[4:1]/3,2,7h[8:3],,,,2, {16}5/3-8[8:1],,,4,3,,5,,4/6-1[8:1],,3/7,,6V84[4:1],,4,, {8},1,2,3bV15[4:1],,,6,6, {16}2b-6[8:1]/6,,,7,2V41[8:1]/7,,1-5[8:1],,2/7,7,,6,6,,7/3,, {16}8p4[8:1]/2,2,,1,8<5[8:1],,3,,1/8,,2,,8/4,,2/6,, {16}7-3[8:1]/3,,,2,7V58[8:1]/2,,8-4[8:1],,7/2,2,,3,3,,2/6,, {8}1v3[8:1],2,8<5[8:1],7,4>2[8:1],3,6,7, {16}8/2v5[8:1],,,1,2,,8,,1/7v4[8:1],,,8,7,,1,, {8}2-5[8:1]/8,5V38[4:1]/3,2,7h[8:3],,,{16},,1,2, {16}3-7[8:1]/7,,2,,8-4[8:1]/3,,1,,2v5[8:1]/8,,3,,7/2,,6,, {24}8b/2,,2,4,,4,6,,6,8,,8,2b,3,4,5,6,7,2,3,4,5,6,7, {16}2b,,1,8,3,4,,2/5,,4,6h[4:1],,3,,2,, {16}1,7,1,6,1,5,,3,8,,5/6,,2/7,2/7,,3h[8:1], {16},5,5h[8:1],,7,7h[8:1],,1,,3,5,1,8,4,6,1, {24}8,,8,3,,3,4,,4,6,,6,8,,,2/4,,1,5,,6/8,,5,, {24}7,6,7,6,7,6,7,6,7,6,7,6,{48}8b,1,2,3,4,,6,,,6,,,,,,5/8,,,,,,4/1,,, {24}2,3,2,3,2,3,2,3,2,3,2,3,{48}1b,8,7,6,5,,3,,,3,,,,,,1/4,,,,,,8/5,,, {16}1,,2,4,3,5,4,6,{24}4,3,2,8,7,6,{16}1,8,,4, {24}7,5,7,5,7,5,6,5,6,5,6,5,{32}7b,8,1,2,3,4,5,6,3b-7[8:1]/7,2,1,8,7V15[2:1],6,5,4, {1}3b,
&lv_5=13+
&lv_7=藏
&inote_1=(120)
{8}3,,3,,,5,,4h[4:1],
{8},5,4h[4:1],,6,6h[8:3],,,
{8}3,,3,,,5,,4h[4:1],
{8},5,4h[4:1],,6,6h[8:3],,,
{8}3-1[8:1],,3/5,,3-1[8:1],4,3,5,
{8}3-1[8:1],5,3,6,3-1[8:1],6,3,5,
{8}6-8[8:1]/4,,6/4,,6-8[8:1],5,6,4,
{8}6-8[8:1],4,6pp5[4:1],5-7[8:1]b,3,2,1,2h[4:3],
&inote_5=(120)
{8}4,,4,,,6,,2h[4:1],
{8},8,2h[4:1],,6,3h[8:3],,,
{8}5,,5,,,3,,7h[4:1],
{8},1,7h[4:1],,3,6h[8:3],,,
{8}2-5[8:1],,2/5,,2-5[8:1],6,2,7h[4:1],
{8}2-5[8:1],,2/7,7,2-5[8:1]/6,6h[4:1],2,,
{8}8-4[8:1],,8/4,,8-4[8:1],3,8,2h[4:1],
{8}8-4[8:1],,2/8,{24}3b,,3,5,,,2/6,,,1>7[4:1],,1,8,,8,
{16}1h[4:1],,,,,,,,8<5[8:1],,1/7,,{24}8,1,2,{16}3h[4:1],,
{8},5-1[8:1],1V37[4:1],2h[4:1],,,{16}2,,{24}3,,5,
{8}4-1[8:1],6,5,7,8-4[8:1],3,1,2h[4:1],
{8},5,6-3[8:1],4,3,2^7[8:1],7pp2[8:3],6,
{16}5h[4:1],,,,,,,,1>4[8:1],,8/2,,{24}1,8,7,{16}6h[4:1],,
{8},4-8[8:1],8V62[4:1],7h[4:1],,,{16}7,,{24}6,,4,
{8}5-8[8:1],3,4,2,3V15[4:1],4,5,6bV84[4:1],
{8},,,,{24}3,2,1,8,7,6,3,2,1,8,7,6,
{8}2h[8:5]/5h[8:5],,,,,,3/4,8h[8:7]/5h[8:7],
{1},
{24}2h[8:5]/4h[4:1],,,,,,,,,1h[1024:1],8h[1024:1],7h[1024:1],,,,5,,,7/8,,,1h[8:3]/4h[8:5],,,
{24},,,,,,,,,,,,2,,4,3,,,7,,5,6,,,
{8}7h[8:5]/8-4[8:1],,,,,,3/5,2h[1:1]/8-4[8:1],
{8},,,5h[1024:1],7h[1024:1],4h[1024:1],8h[1024:1],3h[1024:1],
{16}7h[8:5]/5-1[8:1],,,,,,,,,,,,8/1,,2h[2:1]/6h[8:5],,
{8},,,,{24}2,1,8,7,6,5,2,1,8,7,6,5,
{24}1-5[8:1],,2,4,,,7/1,,,8,,,1-5[8:1],,8,4,,,1/3,,,2,,,
{24}1-5[8:1],,2,4,,,7/1,,,8,,,1-5[8:1]*-3[8:1],,8,2,,,1,,,,,,
{24}2-5[8:1],,4,3,,,2/5,,,6,,,7-4[8:1],,5,6,,,4/7,,,3,,,
{24}2-5[8:1],,4,3,,,2/5,,,6,,,7,,8,5,,4,1,,2,5,,4,
{24}8-4[8:1],,7,5,,,2/8,,,1,,,8-4[8:1],,1,5,,,8/6,,,7,,,
{24}8-4[8:1],,7,5,,,2/8,,,1,,,8-4[8:1]*-6[8:1],,1,7,,,8,,,,,,
{24}8^5[8:1],,7,4,,,3/8,,,2,,,1^4[8:1],,2,5,,,1/6,,,7,,,
{24}8^5[8:1],,7,4,,,3/8,,,2,,,2,,1,4,,5,8,,7,4,,5,
{8}2bqq5[2:1],,5,,4,5,6,7-3[8:1],
{8},3-7[8:1],,1s5[4:1],,1,8,7bp2[4:1]*<2[4:1],
{8},,,,{24}2,1,8,7,6,5,3,2,1,8,7,6,
{24}3b-5[8:1],,,2,,4,3-1[8:1],,,1-5[8:1],,,6V84[4:1],,7,,,6,,,,3,,,
{24}1-3[8:1],,,2,,8,1-4[8:1],,,6,,,7-5[8:1]*-4[8:1]/1,,,8,,,,,,,,,
{24}6-4[8:1],,,7,,5,6-8[8:1],,,8-4[8:1],,,3V15[4:1],,2,,,3,,,,6,,,
{8}8-6[8:1],1,2-4[8:1]/8,1,5v8[8:1]*v2[8:1]/2,7,5,,
{24}7/1-5[8:1],,,2,,2,1-3[8:1],,,2,,,1/8-4[8:1],,,7,,7,8-6[8:1],,,7,,,
{8}8/3V14[4:1],3,4-7[8:1],7-5[8:1],8h[4:1],,,,
{24}2/8-4[8:1],,,7,,7,8-6[8:1],,,7,,,8/1-5[8:1],,,2,,2,1-3[8:1],,,2,,,
{8}1v4[8:1]/4v7[8:1],7-5[8:1],1/4,,{32}4w8[8:1],3,2,1,8,7,6,5,{16}4b,,,,
{24}3b-7[8:1],,4,1,,8,3-1[8:1],,,1-4[8:1],,,5V74[4:1]/3,,5,,,6,,,,3,,,
{24}1-3[8:1],,8,2,,7,1-5[8:1],,,6,,,8-6[8:1]*-4[8:1]/1,,,7,,,8,,,,,,
{24}6-2[8:1],,5,8,,1,6-8[8:1],,,8-5[8:1],,,4V25[4:1]/6,,4,,,3,,,,6,,,
{24}8<6[8:1],,,37,,,2>4[8:1]/8,,,3,,3,5pp7[8:1]*qq3[8:1],,,6,,,5,,,,,,
{24}1-5[8:1]/7,,7,3-1[8:1],,3,1,,,3,,,4-8[8:1],,4,8-6[8:1],,8,4,,,2,,,
{8}1-3[8:1],6-8[8:1]/3,1/8v1[8:1],6,3-5[8:1]*-6[8:1],2,3,,
{24}2/8-4[8:1],,,1-3[8:1],,1,8-6[8:1],,,1-5[8:1],,,8,,,1,,,6-8[8:1],,,8b-4[8:1]/3bV15[4:1],,,
{8},,,,{24}4,3,2,1,8,7,3,2,1,8,7,6,
{24}2b/5,,,2,6,1,7,,2/6,,,3/5,,,6,4,,,3/7,,,4/5,,,
{24}3,,3,7,,7,1,,1,,,2/8h[8:1],,,1,8,,8,2,,2,6,,6h[8:1],
{24},,7,6h[8:1],,,7,,6h[8:1],,,2,,,8,1,,1,7,,7,3,,3,
{24}6,5,6,5,,5,7,,7,3,,3,1,,,28,,37,,,1h[8:1]`8,,,5,
{24}7,6,7,6,7,6,7,6,7,6,7,6,{48}8b,1,2,3,4,,7,,,,7,,,,,5/8h[8:1],,,,,,,4,,
{24}2,3,2,3,2,3,2,3,2,3,2,3,{48}1b,8,7,6,5,,2,,,,2,,,,,1/4,,,,,,5,61,72,
{24}3,,,5,,5,3,,3,7,,7,1,2,3,7,6,5,1,,8/2,,,4,
{24}8,5,8,5,8,5,6,5,6,5,6,5,{32}7b,8,1,2,3,4,5,6,3b-7[8:1]/7,2,1,8,7,6,5,4,
{1}3bV15[2:3],,6V84[2:3]/4V26[2:3],,,,
E
&inote_6=
&inote_7=(120)
{8}3,,3,,,5,,4h[4:1],
{8},5,4h[4:1],,6,6h[8:3],,,
{8}3,,3,,,5,,4h[4:1],
{8},5,4h[4:1],,6,6h[8:3],,,
{8}3-1[8:1],,3/5,,3-1[8:1],4,3,5,
{8}3-1[8:1],5,3,6,3-1[8:1],6,3,5,
{8}6-8[8:1]/4,,6/4,,6-8[8:1],5,6,4,
{8}6-8[8:1],4,6pp5[4:1],5-7[8:1]b,3,2,1,2h[4:3],
