&title=Yukianesa
&artist=テヅカ
&first=0
&des=尘落南丘
&lv_5=14
&inote_5=(210)
{1},,
{4}6h,,,5h,,,4h,,2h,,,3h,,,4h,,7h,,,6h,,,5h,,3h,,,4h,,,5h,,
{4}4h/7h,,,2h/6h,,,3h/5h,,8h/3h,,,6h/2h,,,7h/1h,,
{4}5h/2h,,,7h/3h,,,6h/4h,,
{24}5h[1:3]/2h,,,,,,,8h,,,,,,,3h,,,,,,,7h,,,,,,,,4h,,,,,,,,
{24}6h,,,,,,,,,,7h,,,,,,,,,,,,,8h,,,,,,,,,,,,
{12}E1,E2,E3,{4},,,{1},
{8}5/6h[8:3],,,7,,,5xqq6[4:3]/7xh[1:1],,,,,,,,,,
{8}4/5h[8:3],,,6,,,4<2[4:3]/6h[1:1],,,,,,,,,,
{8}4/3h[8:3],,,2,,,4xpp3[4:3]/2xh[1:1],,,,,,,,,,
{1}1h[4:5]/3^2^1^8^7^6^5[1:1],,
{8}46,,,5h[8:1],,4h[4:1],,3h[8:3],,,2,,C,,7,6,5,,3,,4,,6h[8:3],,
{8},,1,,B8,,5,4,3,,,2h[8:1],,8h[4:1],,7h[8:3],,,6,,B4,,3,5,
{4}2h[4:7],,,,,6h[2:1],,,
{1}1b-5[4:9]/5b,
{4},,8,,3h[24:1],,6,4,3,7,{8}2,1b/8b,,,
{8}57,8,74,3,5,62,3,4b/8b-6[8:1],,8b/2b-4[8:1],,8b/2b,,
{16}84,73,62,,,,
{16}6,,2,4,3,,6-4[8:1],,7,,63,,,,3,,5,4,
{16}6,,3V52-8[8:3],,3,,6,,7,,7,,,,
{16}6,,,,2,4,3,,5,,
{4}2-6[8:1]/6,2/8-4[8:1],8/1-5[8:1],1/7-3[8:1],2/7,
{16}1,4,2-4[8:1],,5,,2,,6,,7,,5-1[8:1],,7,,
{4}5/8-4[8:1],8/2-6[8:1],7-3[8:1]/2,17,24,
{16}6,5,6,,4,,37,,6,,2/5,,
{16}1v6[8:1]*-5[8:1],,,,1,,,,7,4,6-4[8:1],,3,,6,,2,,
{16}3,,7,5,6,,8,,1,,
{4}2/6v3[8:1],2v7[8:1]/6,2/8-4[8:1],8/1-5[8:1],1/8,
{16}7,,1/8v3[8:1]*-4[8:1],,,,8,,,,2-5[8:1],,7p4[8:3],,2,,7,,
{8},,1-6[8:1]*-7[8:1],,1-4[8:1]*-3[8:1],,1,,
{16}6,5,6,,4,,35,,6,,7/4-1[8:1],,,,8-5[8:1]/4,,
{16},,8,,4-1[8:1]*-2[8:1],,,,4-7[8:1]*-6[8:1],,,,4,,,,
{16}3,4,3,,5,,64,,3,,2/5^8[8:1],,,,1^4[8:1]/5,,
{8},1,5h[8:5],,6,7,8,1,2bx/6bx,,
{16}2,3,4,,6,7,8,,,,C/B4/B8,,,,A7/A3,A6/A2,A5/A1,,,,8-3[8:1]/7-4[8:1],,,,87,,,,
{8}B3/E3/A3/D3/A2,,B6/E7/A6/D7/A7,,
{16}1,8,1,,27,,36,,5,4,5,,3v6[8:1]/6v3[8:1],,,,3b/6b,,,,,,,,
{4}3x-8^1-6[4:6]/6x,5,5,5,5,5,5,5,
{4}6x-1^8-3[4:6]/5x,4,4,4,4,4,4,4,
{4}2x-5^4-7[4:6]/1x,1,1,1,8,8,8,8,
{8}5x/8xh[2:3],,,4x,,,3x,,,,2x,,,,,,
{8}75,,6,8,,1q3[2:1],,4,,,5,,B6/E7/4,,5,6,
{8}4h[4:1]/7,,5h[4:1],,6h[8:3],,,7-4[8:1],,,1-5[8:1],,1/6h[4:1],,4,3,
{8}52,,3,1,,8p6[2:1],,5,,,4,,B3/E3/5,,4,3,
{8}5/2h[4:1],,4,4,2h[8:3],,,1-5[8:1],,,8-3-7[4:1],,8/2h[8:1],,,,
{8}85,4,3,2/6-4[8:1],,6/2-8[8:1],,6pp2[2:1]/2,,,4,,3,,3-5[8:1]/1,,
{8}31,8,7-1[8:1],,75,4,3,,
{4}3-5[8:1]/2-5[8:1],,6-4[8:1]/7-4[8:1],,
{8}2-5[8:1],,82,7p4[8:3],,3,2,1,,
{8},4,5,6,5,4,3,7<3[8:3]/2,,,3^8[4:1],,8^5[4:1],,5>1[8:3],,,1p8[8:3],,5^2[8:1],,5x,,
{8}7,3,4,5,6,5,4,3V57[8:3]/6,,,7V13-5[2:1],,C,,6,7,
{8}8-4[8:1],,48,,26,2-8b[8:1]/6-4b[8:1],,2x/6x,,,
{8}1-5[8:1]/2v5[8:1],,12,,4,3,
{8}2>6[8:3]/7,,,6^1[4:1],,1^4[4:1],,4<8[8:3],,,8q1[8:3],,4^7[8:1],,4x,,
{8}2bx/8bx,3-5[8:1],,3b/6b,7-3[8:1],,1bx/7bx,2-6[8:1],,6b/2b,8,,
{16}7h[8:1]/5h[8:1],,,6h[8:1]/4h[8:1],,,53,,
{8}2xqq5[2:1]/4x,,,5,6,,,8,7x<3q7[2:1]/5x,,,2,1,,,
{8}1,2x>6p2[2:1]/4x,,,7,8,,,8,7xpp4[2:1]/5x,,,4,3,,,1,
{8}2q3^5[2:1]/5,,,,6,7,,8,7p6^4[2:1]/4,,,,3,2,,5,
{8}1h[8:3],,,5,2bh[4:5]/6b,,,,B7,,B5,,B4,,C,,
{1}7-3-5[1:3]/2-6-4[1:3],,,{8},,,,,,2,6,
{8}1-7[8:1]/5,,6/1-5-2[4:1],,1/6h[8:1],,,3,
{8}8-2[8:1]/4,,3/8-4-7[4:1],,8/3h[8:1],,,6,
{4}2-5[8:1]/5,7-4[8:1]/2,1-6[8:1]/7,8-3[8:1]/1,
{8}28,2,4,4,5,5,7,7-3-7b[4:1],,
{8}3b/7bx,2-6-2b[4:1]/C,,2bx/6b,C,,
{16}8,,4,,37,26,{4}5^8[8:1]/1^4[8:1],,7-2[8:1]/3-6[8:1],
{8}37,,8-4[8:1]/4,,1-5[8:1]/8,,5-1[8:1]/1,,,,
{16}2x/8x,3/7,4/6,,{8}5,5,4-8[8:1]/7-5[8:1],,
{8}47,,2-6[8:1],6-2[8:1],2,,4-8[8:1],,48,,
{16}7x/1x,6/2,5/3,,{8}4,4,5^8[8:1]/2^5[8:1],,
{8}25,,4^1[8:1]/7^4[8:1],,47,,2/5,{24}2,3,4,
{8}5,,47,47,{24}7,6,5,4,,,{8}82,,
{24}7h[8:1]/2b,3,4,5,,,,,,1h[8:1]/7b,6,5,4,,,
{24}8h[8:1]/2b,3,4,5,,,2h[8:1]/7b,6,5,4,,,,,,
{8}8-5[8:1]/1,,2,2,34,,
{8}7x-3[8:1]/5x,,27,,1^4[8:1],1,{24}1/A8,A7,A6,,,,
{8}7x-3[8:1]/5x,,27,,1^4[8:1],1,{24}1/A8,A7,A6,,,,
{8}6x/5x-2[8:1]*-3[8:1],,5,,1^6[8:1],1,{24}1/A2,A3,A4,,,,
{8}6x/5x-2[8:1]*-3[8:1],,5,,1^6[8:1],1,{24}1/A2,A3,A4,,,,
{4}7-4[8:1]/5,2-6[8:1]/7,8-4[8:1]/2,8/1-5[8:1],
{4}1-3^4[8:1]*-4[8:1]/5,1-7^6[8:1]*-6[8:1],1w5[8:1],1b,
{8}7^4[8:1],8,7/8hx[8:1],,2^5[8:1],1,2/1hx[8:1],,
{16}7-4[8:1],8,7,,8xh[8:1]/7bx,,,,2-5[8:1],1,2,,1xh[8:1]/2bx,,,,
{8}87,87,21,21,63,63,45,
{32}4qq5[8:5]/5pp4b[8:5],,,,,,,
{384}4?qq5[1680#1:5],5?pp4[1680#384:1919],,,,,,,,,,,,,,,,,,,,,,,,,,,,,,,,,,,,,,,,,,,,,,,,,,,,,,,,,,,
{4},,,
{16}3,,7,5,6,,3-5[8:1],,2,,36,,,,6,,4,5,
{16}3,,6V47-1[8:3],,6,,3,,2,,2,,,,
{16}3,,,,7,5,6,,4,,
{4}7-3[8:1]/3,7b/1-5[8:1],1/8b-4[8:1],8b/2-6[8:1],7/2b,
{16}8,5,7-5[8:1],,4,,7,,3,,2,,4-8[8:1],,2,,
{4}4b/1-5[8:1],1b/7-3[8:1],2-6[8:1]/7b,8/2b,75,
{16}6,5,6,,4,,37,,6,,2/5,,
{16}1v6[8:1]*-5[8:1],,,,1,,,,7,4,6-4[8:1],,3,,6,,2,,
{16}3,,7,5,6,,18,,2,4,3,,18,,81,,
{16}3,,7,5,6,,18,,2-6[8:1],,7-3[8:1],,2,,7,,
{16}8-4[8:1],,8,,1-5[8:1],,1,,2-6[8:1],,2,,7,,7,,{24},,,68,15,42,
{8}3-7[8:1],,7w3b[8:1]/3,,7b,,
{16}3,4,3,,5,,64,,3,,2/5-8[8:1],,,,1-4[8:1]/5,,
{16},,1,,5-8[8:1]*-7[8:1],,,,5-2[8:1]*-3[8:1],,,,5,,,,
{16}6,5,6,,4,,35,,6,,7/4^1[8:1],,,,8^5[8:1]/4,,
{8},8,4h[8:5],,3,2,1,8,7bx/3bx,,
{24}73,6,5,4,3,2,1,8,7,26,,,,,,B1/C/B5,,,,,,26,3,4,5,6,7,8,1,2,
{16}3-6[8:1]/7-2[8:1],,,,37,,,,
{24}8/5h[8:1],7,6,,,,1/4h[8:1],2,3,,,,
{16}8,1,8,,72,,63,,4,5,4,,6v3[8:1]/3v6[8:1],,,,6b/3b,,,,,,,,
{4}E2,E3,E4,E6,{24}E7,,,,,,,E8,,,,,,,B2,,,,,,,B3,,,,,,,,,,,
{1}Ch[1:1],
