&title=系ぎて
&artist=rintaro soma
&first=0.15
&des=結月ゆかり
&lv_6=14+
&des_6=結月ゆかり
&inote_6=
(88.8){4},{24},,,,,,,,,,,,,,,,,8x<8[24:31],
{1},{4},,,B2,
,B6,{16}1xh[8:5],,,,,8h[16:5],{64},,,,,,,,,,,,,,,,,7x/2x,
6x/3x,5x/4x,,,,,{4}5/4,{8},B6/B3/B7/E7/B2/E3,{4}Ch[4:1],
{16},,8<4[4:1],1,2,3,8/4-7[8:1],3,2,1>3q4[4:1],,,,1,,,,,5V71[4:1],
4,3,2,5/1v6[8:1],2,3,4-2p1[4:1],,,,4,,,,,8<4[4:1],
1,2,3,8/4v6[8:1],3,2,1>3q4[4:1],,,,1,,,,,5<1[4:1],
4,3,2,5/1qq5[4:1],2,3,4-2[16:1],,,,4b,,,,,2>5[8:1],
2,2,2,2/8,8,8,8,8,{32}2,1,2,1,{16}2,8,7,
6,5/3-8[8:1],3,3,3,3/5,5,5,5,5,{32}4,3,2,1,8,7,6,5,{16}4,6,
6,7<4[8:1],7,7,7,7/1,1,1,1,1,{32}1,8,2,7,3,6,4,5,4,5,3,6,
2,7,{16}1,{32}3b,5,4,5,4,5,2b,5,4,5,4,5,{4}1bh[8:1],{32}1-5b[16:1],8,2,7,3,6,,,{8}1b,
{64}8b,7x,6x,5x,,,8b,7x,6x,5x,,,8b,7x,6x,5x,,,,,,,,,1b,2x,3x,4x,,,1b,2x,3x,4x,,,1b,2x,3x,4x,,,,,,,,,{8}Ch[8:1],
{64},,,,,,,,1b,8x,7x,6x,,,8b,7x,6x,5x,,,7b,6x,5x,4x,,,,,,,,,8b,1x,2x,3x,,,1b,2x,3x,4x,,,2b,3x,4x,5x,,,,,,,,,{8}Ch[8:1],
{16},,B7,B8,B1,B2,E7,B8,B1,E3,E7,E8,E2,E3,A6,B7,
B2,A3,{8}Ch[4:3],,,,,,,,,,C,
{16},,,,,,,,,,4>5[8:5]/5<4[8:5],
3/6,{8}2/7,A5/A4/D5f,{16},,,,,,,,,,3/6,
7h[16:1]/2h[16:1],,,2b/8b,3,4/8-4[16:1],7-3[16:1],{32}4,3,2,1,{16}8b,7b,2,2,
5,{32}3,2,{16}8/1-5[32:3],7,2/8,3,{8}1/7q8[16:3],{16},4,7/2>5[16:1],3,{8}3,{16}2,7,
{32}A6,A7,A8,A1,{16}2x,3x,{8}4x/6x,{16}3/5,2,1/5v2[16:1],6-8>1[16:1],{32}1,2,3,4,{16}5b,6b,,,,,3/6pp3[4:1],
2/7,{8}8/1,{16}4b/6b,3,3,{32}2,1,{8}8h[16:1],{16}8x/4x,8xh[16:3]/4xh[16:3],{32},,,,,,,,4x/8x,
5x/1x,6x/2x,7x/3x,{8}8x/4x,5x/1x-5b[16:1],{24},,,1b,,7b,,2bx/B5f,,8bx/B3f,7,6,
2,3,4,7<4[8:1],,,{8}4-8[8:1],7,{16},1v6[8:1]*v4[8:1],2,2,{4}2,
{16},,5pp8[8:3]/4qq1[8:3],6/3,{8}3/6,A5/D5f/A4,,,,Ch[8:3],
{32},,,,,,,,,,,,1b/5x,2,3,4,5,6,7,8,1b/5x,2,3,4,5,6,7,8,1b/5x,2,3,4,
5,6,7,8,1b/5x,2,3,4,5,6,7,8,1b/5x,2,3,4,5,6,7,8,1b/5x,2,3,4,5,6,7,8,{8}1b/B5,
7/B3,5/B1,3/B7,{48}1b/5x,2,3,4,5,6,7,8,1,2,3,4,5b/1x,6,7,8,1,2,3,4,5,6,7,8,1b/5x,2,3,4,5,6,
7,8,1,2,3,4,1x/5b,6,7,8,1,2,3,4,5,6,7,8,1b/5x,2,3,4,5,6,7,8,1,2,3,4,5b/1x,6,7,8,1,2,3,4,5,6,7,8,{8}1x/5b,
2/6x,3x/7,4/8x,{32}4b,5,6,7,8-4[16:1],1,6b/2,7/3,{8}4/8,8b,{32}1b,8,7,6,
5-1[16:1],4,7b/3,6/2,{8}1/5,5b,{32}4b,5,6,7,8-4[16:1],1,6b/2,7/3,{8}4/8,1b/8b,2b/3b,
5b/4b,6b/7b,{4}1bp4[4:7]/8bq5[4:7],{8},,,,,,,,,,,,,,,6pp4[8:5],
{2}6h[4:3],
{8},,,3qq5[8:5],{2}3h[4:3],
{8},,,6pp4[8:5]/3qq5[8:5],{2}3/6,
{8},,,7h[16:13],{2}2h[400:299],
{4},(177.6),{8}5b/E4f,7b/E2f,,6b/E4f,
{4}8b/E2f,{8}5b,7b>2[4:1],,7,6,5,
4<7[16:3],3,2/4,2,1b/E8f,3b/E6f,,2b/E8f,
{4}4b/E6f,{8}1b,3b<6[4:1],,3,2,1,
8>3[16:3],7,6/8,6,7-3[8:1],7,8-4[8:1],8,
1-5[8:1],1,2-6[8:1],2,3-7[8:1],3,4-8[8:1],4,
5,5,{16}2,6,2,6,2,6,2,6,3,7,3,7,
{32}2b,1x,8x,7x,6x,5x,{16}4x,{32}7b,8x,1x,2x,3x,4x,{16}5x,{2}C,
,2q3[4:15]/7p6[4:15],
{4},,,,,,,,,,,,,,,8<5[8:1]/1>4[8:1],
A8/D1f/A1,8>3[8:1]/7<4[8:1],A7/D8f/A8,1<6[8:1]/2>5[8:1],
A1/D2f/A2,8<5[8:1]/1>4[8:1],A8/D1f/A1,5<8[8:1]/4>1[8:1],
A5/D5f/A4,2/7,{32}1,2,3,4,5,6,7,8,1,2,3,4,5,6,7,8,
1w5[8:1],2,3,4,5,6,7,8,{4}1,{8}7/2-6[8:1],1,2/7-4[8:1],8,
{16}7/1,2,{8}3,6,7,8/2-5[8:1],3,2/1,{16}8,7,
{8}6v3[8:1]*-1[8:1],4,{4}6,{8}2,2/8,7,7/1,
1/8,2/7,{4}3/6,6h[8:1]/5h[8:1],4h[8:1]/3h[8:1],
2h[8:1]/1h[8:1],8h[8:1]/7h[8:1],{32}2x,3,4,5,2x,1,8,7,2x-6[8:1],3,4,5,2x,1,8,7,
{8}2x,8,8,8,{32}7x,6,5,4,7x,8,1,2,7x-3[8:1],6,5,4,7x,8,1,2,
{16}7x,,,1,,,{8}1,2/5,2,7/2,2,
2/6,2,{4}2/8,{16}1,8,1,6,1,8,1,5,
1,8,1,6,{4}1b,{12}7x,5,6,5,6,5,
8x,5,6,5,6,5,7x,5,6,5,6,5,
8x,5,6,5,6,5,{6}7x,{12},,1,8,
{4}1,{12}2,4,3,4,3,4,1,4,3,
5-7[8:1]/2-8[8:1],5/2,5/2,5/2,{4},{16},,{64},,{96},{32}1/6,2,3,4,5,6,7,8,
1,2,3,4,5,6,7,8,1,2,3,4,{24}8/5,7,6,5,4,3,2,1,8,7,6,5,4,3,2,
{16}1/5,6,7,8,1,2,3,4,{8}5/8,7,6,5,
{16}3,4,{8}3,2,2,{32}8-4[8:1],1,2,3,{8}4,8,5bw1b[8:1],
,5b,,,{4}2b,{24}2,3,4,8,7,6,
{4}5b/1,{24}7,6,5,1,2,3,{4}4b/8,{24}3,2,1,5,6,7,
{4}8b/4,{24}6,7,8,4,3,2,{6}1b/5,6,7,
8,1,2,{12}3,4,3,5,3,6,
{24}3-7b[8:1],4,5,6,7,8,{4}1/3b,{32}1/6,2,3,4,5,6,7,8,1,2,3,4,5,6,7,8,
1/5,4,3,2,1,8,7,6,5,4,3,2,1,8,7,6,5/8,1,2,3,4,5,6,7,8,1,2,3,4,5,6,7,
8/5b,4b,3b,2b,1b,8b,7b,6b,{4}5b,{48}1,2,3,4,5,6,7,8,1,2,3,4,5,6,7,8,1,2,3,4,5,6,7,8,
1,2,3,4,5,6,7,8,1,2,3,4,5,6,7,8,1,2,3,4,5,6,7,8,{2}1xh[8:15],
{8},,,,,,,,,,,,,,,6,
{16},6,,,,,,,,,,,,,{8}4,
,,,,{2}B7,
{8},B2,{4},,,{16},,{24}A6,
B6,B5,B4,B3,{3}A3,
E
