&title=Retribution
&artist= nm-y & Kry.exe
&first=0
&des=Y∅RU
&demo_seek=100.1
&demo_len=21.9
&wholebpm=190
&lv_5=14+
&inote_5=(190)
{2}1>1[4:27],,,,,,,,
5>1[4:11]b,,,,,,,Ch[8:2],
{8}5h[4:7]/4h[8:3],,,,,,,,3,,4,,3,,4,,5h[8:3]/4h[4:7],,,,,,,,6,,5,,6,,5,,
6h[4:7]/3h[8:3],,,,,,,,4,,4,,5,,5,,3h[4:7]/6h[8:3],,,,,,,,5,,5,,4-8[8:1],,4,,
{48}1b/7b,2/6,5h[16:5]/3h[16:5],,,,,,,,,,,,,,,,2-6[14.07#330:3]/6,1/7,{12}8b,{16},,,
,,,,,1h[8:3]/3,,,,,,3,,,,,,1,,2,,3h[8:3],,,,,,,,,,,,8,1,2,3,4h[8:3],,,,,,,,2-6[8:1]b,,2,,2b,,,,
{48}5b/7b,4/8,1h[16:5]/3h[16:5],,,,,,,,,,,,,,,,4/8-4[13.57#330:3],5/7,{12}6b,{16},,,
,,,,,7h[8:3]/1,,,,,,1,,,,,,7,,8,,1h[8:1],,,,1h[8:1],,,,8h[8:1],,,,8h[8:1],,,,1h[8:2],,8,,7h[8:2],,8,,1h[8:2],,8-4[8:1]b,,7,,8b,,
{48}5xh,6,7,8h[16:11],,,,,,,,,,,,,,,4xh,3,2,1h[16:5],,,,,,,,,,,,,,,,2b/7b,3/6,4h[16:3]/5h[16:3],,,,,,,,,{16},,
4,,5h[16:2],,4,,5h[16:2],,4,,5h[16:2],,4,,5h[16:2],,3,,5h[16:2],,2,,5h[16:2],,1,,5h[16:2],,1h[16:2],,5,,1h[16:2],,6,,1h[16:2],,7,,1h[16:2],,8-5[8:1]b,,1h[16:2],,
8b,,8x-3[8:1],,8,,8x/5x,,5-2[8:1],,5,,5x/3x,,3x,,3,,2h[8:1]x,,3,,1h[8:1]x,,3,,8h[8:1]x,,3,,7h[8:1]x,,
{24}3,4,5,6x,7,8,1,2,3,4x,5,6,{36}7h,8,1,2,3,4x,5,6,7,8,1,2,3,4,5x,6,7,8,{4}1bV35v3[8:4]b/5bV71v7[8:4]b,,,,
{16}6h[8:1]b,,5,6,4h[8:1],,5,4,6h[8:1],,5,6,4h[8:1],,C,,
3h[8:1]b,,4,3,5h[8:1]
,,4,5,3h[8:1],,4,3,5h[8:1],,C,,
6h[8:1]b,,5,6,4h[8:1],,5,4,6h[8:1],,5,6,4h[8:1],,C,,
4,,5x,,3,,6x,,2,,7x,,1x,8x,1x,8x,
2h[8:1]b,,1,2,8h[8:1],,1,8,2h[8:1],,1,2,8h[8:1],,C,,
7h[8:1]b,,8,7,1h[8:1]
,,8,1,7h[8:1],,8,7,1h[8:1],,C,,
2h[8:1]b,,1,2,8h[8:1],,1,8,2h[8:1],,1,2,8h[8:1],,1x>3<5<7-5-3-1[16:10],,Ch[16:12]f,,,,,,,,,,,,,,,,
1b-4[8:1],,E6,E5,1-6[8:1],,E6,E5,1-4[8:1],,E6,E5,1,,6,,
7b-5[8:1],,E4,E3,7>1[8:1],,E4,E3,7-5[8:1],,E4,E3,7,,3,,
2b-4<5[8:1],,E7,E6,2<8[8:1],,E7,E6,2v5[10:1],,E7,E6,2,,8<4[16:5]
,,
4xqq5[108#23:4]b,,,,,,,,,,,,,,,,
1b>4[8:1],,7,6,1-5[8:1],,6,5,1-4[8:1],,7,7,1,,8x,,
8b<5[8:1],,2,3,8-4[8:1],,3,4,8-5[8:1],,2,2,8,,1x,,
2b>5[8:1],,8,7,2-6[8:1],,7,6,2-5[8:1],,8,8,2,,1xs5<5[16:10]b,,
,,,,,,,,,,,,,,,,
{36}8,E1,B1,B2,E3,,,,,
6,E7,B7,B8,E1,,,,,
4,E5,B5,B6,E7,,,,,
2,E3,B3,B4,E5,,,,,
{24}E2,,,E6,,,E4,,,E8,,,E3,,,E7,,,Ch[8:1],,,,,,
{36}7,E8,B8,B1,E2,,,,,
5,E6,B6,B7,E8,,,,,
3,E4,B4,B5,E6,,,,,
1,E2,B2,B3,E4,,,,,
{32}8w4[16:1],,,,,,,,8,B1/B2/B3/B4/B5/B6/B7/B8,,,,,,,Ch[8:2]f,,,,,,,,,,,,,,,,
{16}E1,,,,E2,E6,E4,E8,E3,,,E7,,,B1,,B5,,,B3,,,B7,,Ch[8:2],,,,,,,,
E5,,,,B8,B4,B6,B2,E1,,,E5,,,D7,,D3,,,E7,,,E3,,Ch[8:2]f,,,,,,,,
1bh,2,3x,4,5/8h,7,6x,5,4/7h,8,1x,2,3/6h,7,8x,1,2/6h,5,4x,3,2/1h,8,7x,6,5/3h,2,1x,8,7x/3h,4,5x,6,7/3bh,4,5x,6,7/3h,2,1x,8,7/6h,5,4x,3,2/1h,8,7x,6h,4xz8[8:1]/5xs1[8:1],,,,4>2[15:1]b/5<7[15:1]b,,,,4b/5b,,1x/8x,,{48}1/8,2/7,3/6,4b/5b,,,,,,,,,
{16}2b>5[8:1],,7,7,2-6[8:1],,7,6,2v5[8:1],,8h,8h,2,,1x,,
7b<4[8:1],,2,2,7-3[8:1],,2,3,7v4[8:1],,1h,1h,7,,8x,,
1b>4[8:1],,6,6,1-5[8:1],,6,5,1v4[8:1],,7h,7h,1,,6x,,
3-6[12:1]/7-2[12:1],,,,3b/7b,,,,5/1,4/8,3/7,2/6,{32}1x,8x,7x,6x,5,4,3,2,{1}1>5>1V35v3[16:108]b/5<1<5V71v7[16:108]b,,,,,,,{2},Ch[4:1]f,
{16}3/E6,,E7,,3/E8,,E1,,3,,B6,,B7/3,,B8,,E6/3,,E7,,3,,E8,,3,,E1,,B6/3,,B7/3,,
B8/4,,E6,,4,,E7,,4,,E8,,4/E1,,,,4/B6,,B7,,4,,B8,,4/E6,,E7,,4/E8,,4,,
7/E2,,E3,,7,,E4,,7/E5,,B2,,7,,B3,,B4/7,,E2,,7/E3,,E4,,7,,E5,,7,,B2/7,,B3/8,,
8,,1,,1,,8,7,6,5,4h,3,2,1,4h,3,2,1,8,7/2h,3/6,5-8[16:3]/4bz8[16:3]b,,,,,B6f,,,,
1bv6[8:1],,6V82[4:1]b,,1,,8,,,,5<8[8:1],,8V26[16:4],,8,,2,,3V52[6:1]b,,,,3b,
,,,8p4[8:1],,4<6-2[4:1],,8,,1,,1-4[12:1]b,,,,1b/8-5V73[8:3],,,,8,,3V14[4:1],,3,,4,,4,,
,,2-4[12:1],,2,,2/8-6[247#9:1],,,8/1-5[247#8:1]b,,,1b,,
6>4qq2[4:2],,,,6/4,,3,,2p6[4:1]*p6[4:1],,,,6p2[4:1]b,,,,2V85[3:1],,,,4h[16:6]b,,,,,,,
,,,5h[8:2],,1>2-4<5[4:1],,,,1/5v8[4:1],,,,8z4[2:1]b,,7,,6,,5,,4w8[8:1],,,,,
,,,{24}1x,2x,3,4/8x,1x,2,3/7x,8x,1,{16}2b,,1xv6[8:1]b,,2h[8:1],,{48}1b,3,4,{16}5,,,1,,2/8x<6-1[6:1],,3,,8/4,,5x>1[8:1]b,,,,{48}5b/1xz5[16:6],8,7,{16}6,,,
4,,5x-3>2[6:1],,6,,7,,8xv5[8:1]b,,,,{48}8b/1,2,3,4,,,{16},,6,,7x<5v2[4:1],,8,,1/7,,2x,,,,1h[8:1]x,,2h[8:1]x,,1h[8:1]x,,
2x>4[12:1],1x,2x,,2/8<6[12:1],,8,,8/3-1<8[10:1],,3,,3/4<5-7[10:1],,4,,4/1-6[12:1],,1,,1/7-4[12:1],,7,,7/5v2[12:1],,5,,5/6<1[12:1],,6,,6/3-6[12:1]b,,3,,3b/8-3[12:1]b,,8h,,8b/5-2[12:1]b,,5h,,5b/8<7-5[10:1]b,,8h,,8b/4>3-1[10:1]b,,4h,,4b/6-2[12:1]b,,6h,,6b/1v4[12:1]b,,1h,,1b/5-8[12:1]b,,5h,,5b,,,,
{16}8b/4b,,,C,,,1/5,,1b/5b,,,C,,,7/3,7/3,7b/3b,,,C,,,2h/6,,2b/6bh,,,C,,,1/2,,
{32}8h[8:1]b/3b,4,5,,,,8h[8:1]/3,4,5,,,,8h[16:1]/3,4,5,,7h[8:1]b/2b,3,4,,,,7h[8:1]/2,3,4,,,,7h[16:1]/2,3,4,,
{16}6x,,3,,7x,,2,,{24}8x,7,6,5,4,3,2x,1,8,7,6,5,
{64}4bh,D4,3,D3,2,D2,1,D1,8,D8,7,D7,6,D6,5,D5,4,D4,3,D3,2,D2,1,D1,8,D8,7,D7,6,D6,5,D5,4,D4,3,D3,2,D2,1,D1,8,D8,7,D7,6,D6,5,D5,{4}4<5<6<7>8>1>2>3<4<5[3:5]b,,,,,,,,,
{16}5x,6x,5x,6x,4,6,4,6,5h[16:1]x,,6,5,6,4h[16:2]x,,,6,4,6h[16:1]x,,4,5,4h[16:1]x,,5,4,5h[16:1]x,,4,5,4h[16:2]x,,,7,5,6,2,4,3,7,5,6,3,1,2,6,8,7,3,1,2,{24}6h,7,8,1,2,3/5h,6,7,8,1,2,3,{32}4/5h,6,7,8,1,2,3,,,,
{24}1xh,2x,8xh,7x,1xh,2,3,8xh,7,6,2h,3,4,8h,7,6,2h,3,4,8h,7,6,2h,3,4,7h,6,5,{32}2xh,3x,4x,7xh,6x,5x,1xh,2,3,7xh,6,5,1h,2,3,7h,6,5,8h,1,2,3,7h,6,5,4,{640},,,,,,,,,,,,,{24},,,{48}7h,8,1,2x,3x,,,,,,8h,1,2,3x,4x,,,,,,1h,2,3,4x,5x,,,,,,{640},,,,,,,,,,,,,,,,,,,,,,,,,,,,,,,,,,,,,,,,,,,,,,,,,,,,,,{24}7,3,7,3,7,3,7,3,7,3,6,4,6,4,6,4,6,4,6,4,5,5,5w1[16:1]b,5,5,5,5,5,{96}5b,B5`Cfh[96:1]`B1,,,,,
E
