&title=Chu! Future☆Express!
&artist=SAWTOWNE
&first=0.06
&des=Professor Misaki
&lv_5=13+
&inote_5=(195){4},
{4}7h[4:1],{8}6,6-1[8:1],,5,5,,8h[4:1],,1,1-5[8:1],,2,2,,
{4}7h[8:1]/4h[8:1],2h[8:1]/5h[8:1],3h[8:1]/8h[8:1],1h[8:1]/6h[8:1],{8}7x/5x,2x/4x,8x/6x,1x/3x,5x-8[16:1]/4x-1[16:1],3x/6x,{32}E5,Cf,E1,,,,,,
{8}2x/1x,{16}2,3,{8}2,2,23,2,24,25,26,78,26,34,{4}2V84[4:1]/6,{8}4,5,
{8}6-8[8:1],,6/1-5[8:1],,1/4-2[8:1],,4/8^5[8:1],8,{4}8^3[8:1],8-4[8:1],8-3[8:1]*-5[8:1],8b,
{8}7x/8x,{16}7,6,{8}7,7,78,7,71,72,73,12,37,56,3/7V15[4:1],,5,,
{8}3,24,B4/B2,C,6,75,B7/B5,C,34,2,18,7^5[8:1],18,{16}2bx,3bx,{4}4bx,
{4}6h[8:1]/5h[8:1],7h[8:1]/4h[8:1],2h[8:1]/1h[8:1],8h[8:1]/3h[8:1],{8}27,27,3s7[4:1]/6z2[4:1],45,{2}36,
{4}4x/3xh[4:3],6,7,1s5[2:1],3,2,1z5[8:1]*-5[8:1],1,6xh[4:3]/5x,3,2,8z4^5s1[4:3],8,7,6^7^8^1^2^3[4:1],6,
{4}4-8[8:1],{8}7,6,51,2,36,7,8-4[8:1],,3,2,15,6,72,3,
{4}4V28[4:1],8z4[4:1],{8}7,6,{4}5v7[8:1],5v3[8:1],5-1[8:1]b,A5f,2z6[2:1],
{4}21,1,1,8/6qq8[2:1],67,7,6,8z4[2:1]/5,48,5,6,7/4qq1[2:1],64,7,8-5[8:1]*s4[8:1],8b,
{8}7h[2:1]/6,,6,5,{16}4,3,2,1,7,6,5,4,{8}2h[2:1]/3,,3,4,{16}5,6,7,8,2,3,4,5,{4}6/8V62[4:1],2V48[4:1],{8}1,1,1h[4:1],,
{4}7-3[8:1],7^4[8:1]/1^4[8:1],1b/7b,{8},
{8}64,5-1-3[4:1]*-1-7[4:1],,,B1,A7/A3,,,71,8-4-2[4:1]*-4-6[4:1],,,B4,A6/A2,,,1,{4}1V75[4:1],5V31[4:1],1^7-5[4:1],5^3-1[4:1],{8}1p8[2:1]b,8,7,6,,7,7,6,
{8}5h[8:3],6,7,8,1h[8:3],2,3,4,5bh[8:3],6,7,8,1bh[8:3],2,3,4,{16}5b,6,7,8,1,2,3,4,{32}E5,E6,E7,E8,E1,E2,E3,E4,B4,B5,B6,B7,B8,B1,B2,B3,
{1}Cf,
{4}7^4[8:1]/4-1[8:1],7/4q8[4:1],8>4[4:1],4<8[4:1],1^4[8:1],1q5[8:1],8v3[8:1]/1v6[8:1],18,2^5[8:1]/5-8[8:1],2/5p1[4:1],1<5[4:1],5>1[4:1],8^5[8:1],8p4[8:1],8-3[8:1]/1-6[8:1],18,
{8}7-5[8:1],3-1[8:1],7,3,4-1[8:1]*-7[8:1],,4b,,2-4[8:1],6-8[8:1],2,6,5v2[8:1]*v8[8:1],,5b,,
{8}E8,E7,E3,E2,A6,A3,E5,{4}Ch[4:1],A8/B8/A7/B7/A4/B4/A3/B3,A5/B5/A6/B6/A1/B1/A2/B2/Cf,{8}7h[8:1],{16}5,4,3,2,
{4}1-6[8:1]/8v6[8:1],1v3[8:1]/8-3[8:1],1-5[8:1]/8v6[8:1],1v3[8:1]/8-4[8:1],18,{8}56,7,8-6[8:1]/1-3[8:1],27,18,,
{4}5^2[8:1]/4v2[8:1],5v7[8:1]/4^7[8:1],5v2[8:1]/4v1[8:1],5v8[8:1]/4v7[8:1],54,{8}12,3,45,36,27,,
{4}8-3[8:1]/7-4[8:1],{32}8bq6^5[4:1]/7bp1^2[4:1],Cf,,,,,,,{2},
{4}1-6[8:1]/2-5[8:1],{32}1bq4[4:1]/2bp7[4:1],Cf,,,,,,,{2},
{4}3b-8[8:1],3/1b-6[8:1],1/7b-4[8:1],7/5b>1[4:1],1b<5[4:1],5b>1[4:1],1b-5[8:1]b,{32}8b,C,,,,,,,
{4}7h[8:1],7h[8:1],{8}7h[8:1],6,7h[8:1],5,7h[8:1],E5,7h[8:1],,7h[8:1]/4,,7h[8:1]/E4,E3,
{4}2h[8:1],2h[8:1],{8}2h[8:1],6,2h[8:1],7,2h[8:1],E7,2h[8:1],,2h[8:1]/6,,2h[8:1]/E7,E8,
{8}8h[8:1],1,8h[8:1],2,8h[8:1],3,8h[8:1],4,8h[8:1],5,8h[8:1],4,8h[8:1],3,8h[8:1]/3,2,
{8}1h[8:1],8,1h[8:1],7,1h[8:1],6,1h[8:1],5,1h[8:1],4,1h[8:1],5,1h[8:1],6,1h[8:1]/6,7,
{8}8bV64[4:1],8,4bV68[4:1]b,,2,2,3,4,
{8}5bv2-4[4:1],5,5bv8-6[4:1],,A4f,,A6f,,
{8}2b-5[8:1],8b-5[8:1],2b,8b,1bs5[8:1],,1b,,
{32}B8/B4,B3/B7,B6/B2,,,,,,B5/B1,B2/B6,B3/B7,,,,,,E8/E4,E3/E7,E2/E6,,,,,,D2/D6,D3/D7,D4/D8,,,,,,
{8}7b-5v4-2[4:1],7,2b-4v5-7[4:1]b,,1h[1:0],1h[1:0],8h[1:0],8h[1:0],
{4}1b-4-8-5[2:1],1b/2h[4:1],{8},A3,A5,,
{4}A4/A3/D4/E4,A6/E7/B6/E6,E1/E2/B1/B2,A7/D7/E7/B7,{1}Chf[1:4]/B5/B4/B3/B6/B7/B8,
{1}1bq6[2:1],5-8[2:1],1qq5[2:1],{2}6^7^8^1^2^3[2:1]b,{4}4pp1[4:3],4,
{4}8h[8:1],8h[8:1],7h[8:1],6h[8:1],5h[8:1],4h[8:1],3h[8:1],2h[8:1],{16}1,8,1,8,2,7,2,7,3,6,3,6,2,7,
{4}1b^4[8:1]*^6[8:1],1bw5[8:1],1b,{8}2h[8:1],{16}4,5,6,7,
{4}8-4[8:1]/3-8[8:1],8b/3b,1^4[8:1]/5^8[8:1],1-5[8:1]/5-1[8:1],1^3-6[4:1]/5,{8}6q2[4:1],7,8,7,6-4[8:1],,
{4}6-1[8:1]/1-5[8:1],16,8^5[8:1]/4^1[8:1],8-4[8:1]/4-8[8:1],4/8^6-3[4:1],{8}3p7[4:1],2,1,8,1,,
{4}6^1[8:1]/1-5[8:1],1b/6b,{8}4,3,2,12,{4}3^8[8:1]/8-4[8:1],3b/8b,{8}5,6,7,87,
{32}1b/8b,2x,3x,,,,,,1b/8b,7x,6x,,,,,,2b/8b,3x,4x,,,,,,1b/7b,6x,5x,,,,,,1b,8x/2x,7x/3x,,,,,,8b,1x/7x,2x/6x,,,,,,1b-5[8:1]/8b-4[8:1],2x/7x,3x/6x,4x/5x,,,,,{4}1b/8b,
{8}21,{16}3,4,{8}3,3,32,3,31,38,37,18,26,45,{4}3v4[8:1]/7v5[8:1],37,
{16}78,,6,5,{8}6,6,67,6,68,61,{4}6v8[8:1]/2v4[8:1],26,1v7[8:1]/5v3[8:1],15,
{16}21,,3,4,{8}3,3,23,14,85,67,18,27,3^1[8:1]/6^8[8:1],45,{4}36,A7/A2/B7/B2/E8/E2,
{8}43,34,B5/E5,B2/E2,56,56,E5/B4,B7/E8,78,6,54,3^1[8:1],46,{16}7bx,6bx,{4}5bx,
{4}8h[8:1]/4h[8:1],7h[8:1]/6h[8:1],1h[8:1]/5h[8:1],2h[8:1]/3h[8:1],{8}34,45,56,67,{16}67,8,1,2,3,4,
{16}5bh[8:9]/E1,E2,E3,E4,E5,E6,E7,E8,B8,B1,B2,B3,B4,B5,B6,B7,B8,B1,
{1}Cf,,E
