&title=花冷列車
&artist=三月のパンタシア
&first=0.06
&des=「The next station is XINJIEKOU, please get ready to get off for transferring to METRO LINE 2.」
&lv_5=13
&inote_5=(137)
{1},
{4}4bx,4,4,4,4/E6,
4/E7,4/E8,4/E1,
3,3,3,3,
3/E6,3/E7,3/E8,3x-1[8:1]/1x-5[8:1],
,5x-1[8:1]/1x-3[8:1],,2x-4[8:1]*^8[8:1],
,7x-5[8:1]*^1[8:1],,{16}2,4,2,4,
{8}3x^6[8:1],2x/1x,,,7x-4[8:1]/1x-4[8:1],2x/6x,,,
{96}5bxp2[8:3]/6bxpp1[8:3],,,,,,,,,,,,{8},,,,,A2/B2/Cf/B5/A5/A8/B8,,
{16}7h[16:3]/3,,,5h[16:3],,,4,,2h[16:3],,,4h[16:3],,,5,,
7h[16:3],,,5h[16:3],,,4,,2^5[8:1],,1/5-1[8:1],,,,,,
6h[16:3],,,8h[16:3],,,1,,3h[16:3],,,1h[16:3],,,8,,
6h[16:3],,,7h[16:3],,,8,,1/2,,38,,1/6,,78,,
3h[16:2],,4,2h[8:1],,4,3,,6h[16:2],,5,7h[8:1],,5,6,,
3h[16:2],,4,2h[8:1],,4,3,,1pp3[16:3]/5pp7[16:3],,26,,,,,,
2h[16:2],,4,1h[8:1],,8,2,,6h[16:2],,5,7h[8:1],,4,5,,
63,,4,7,2,5,3,6,E1f,,,,,,,,
7-5[8:1],,5,,4,,3,,2h[8:1],,4,,35,,3pp4[16:4]*V14[16:3],,
,,,,,,,,6,5,6,,7,,28,,
2-4[8:1],,4,,5,,6,,7h[8:1],,5,,75,,6>2[16:3]*p1[16:3],,
,,,,,,,,2,1,2,,8,,17,,
6h[8:1],,5,,28,,3,4,3,,2,,18,,6,5,
6,,7/5,,18,,3,4,3,,21,,68,,4,5,
3h[8:1],,4,,6h[8:1],,5,,2h[8:1],,4,,7h[8:1],,5,,
6x/4x,,,3x/5x,,,2x/7x,,E7/Cf/E3,,,,6hx[16:3],,5^2[16:2],5,
,,,,6xh[16:3],,5^2[16:2],5,,,,,6,,7,,
82,,1,,2^5[16:3],2,,5v3[16:3],,,,,6,,7,,
84,,7-5[8:1],7,,,2,,1^4[8:1],,4p8[8:1],,5,,6,,
7,,6,,5v8[8:1]*v2[8:1],5,,,,,,,3hx[16:3],,7-4[16:2],7,
,,,,3hx[16:3],,7-4[16:2],7,,,,,3,,2,,
17,,8,,6v1[8:1],6,,1,,,2,,3,,46,,
5bx/7bx,,2bx/8bx,,2bx/8bx,,1bx/7bx,,6bx/5bx,,4bx/3bx,,1bx^3v8-4[16:7]/7bx^5v8-4[16:7],,5bx/3bx,,
1bx/7bx,,,,,,,,,,Ch[4:1],,,,,,
2xb-6[8:1]/8xb,,1,,7-4[8:1]/2,,8,,3-1[8:1]/7,,2,,5-7[8:1],,6,,
3,,3^8[8:1],,8p4[32:5]*^5[8:1],,3,,,,,,2-4[8:1],,5,,
2/7-3[8:1],,6,,2-6[8:1]/7,,1,,7-4[8:1]/2,,8,,7>5[8:3],,1,1h[16:7],
,,,,,,,,36,,74,,2hx[16:3],,4-8[8:1],4,,,3,,2hx[16:3],,4-8[8:1],4,,,3,,2,,1/7,,
1-5[8:1],,5-2[8:1],,7,7,,6,,,6,,15,,24,,
3-6[8:1],,3,,6,,7,,8-4[8:1],,8,,4,,3,,
2,,17,,6,5,,3,4,,62,,1-5[8:1]/7,,2,,
1b/7b-3[8:1],,6,,2-5[8:1]/7,,1,,6-8[8:1]/2,,7,,4-2[8:1],,3,,
5,,6^1[8:1],,1q5[32:5]*^4[8:1],,6,,,,,,7-5[8:1],,4,,
7/2-6[8:1],,3,,7-3[8:1]/2,,8,,2-5[8:1]/7,,1,,2-6-4[8:2],,8,8h[16:7],
,,,,,,,,74,,25,,7xh[16:3],,5-1b[8:1],5,,,6,,7hx[16:3],,5-1b[8:1],5,,,6,,7x,,2x/8x,,
8^3[8:1],,3^6b[8:1],,4x,4x,,1x,,,3,,84,,75,,
6-1[12:1]/4-1[12:1],,3/7,,,,,,3-6[8:1]/8-4[8:1],,2/1,,,,,,
27,,3,4,,6,5,,4w8b[16:2],,,,,,,,
26,,3,4,2h[8:1],,8,,17,,6,5,6h[8:1],,4,,
46,,2,8,3,7,4,6,5,,7,7,6b/8b,,15,,
3,3,6,6h[8:1],1,,3,3,5,5h[8:1],8,,3,3,4,4h[8:1],
8,,2,4,3,5,1h[8:2],,,,7,7,6b/5b,,3/4,,
2-5[8:1],,2,,8-4[8:1],,8,,3h[8:1],,,2h[8:1],,,1/3,,
6h[8:1]/4h[8:1],,,2h[8:1]/8h[8:1],,,7,1,7h[16:3],,,5h[16:3],,,3,,
2bh[8:1]/4bh[8:1],,,1bh[8:1]/8bh[8:1],,,7b/5b,,1bh[8:1]/2bh[8:1],,,3bh[8:1]/4bh[8:1],,,6b/5b,,1bV75-3[8:4]/8b<2[8:5],,,,,,,,,,,,,,,,
{8}5xp8[8:4],,,,,,,,1xq5[8:4]*^2^3^4^5b[8:4],,,,,,,,
4xV61[2:1]*V68[2:1],,,,,,,,8x^5[16:5]*^3[16:5],,,,,,C,,
1x>5[8:2],,E7/B6,,7x<3b[8:2],,E3/B2,,
2xpp1[8:3],,8,,7,,6/2,2,
3x/7x,64,73,64,1x/7x,35,87,34,
{16}2x/8x,,71,,4,53,,6,75,,1/8,,2^5[8:1]/1,,3,,
2b/8b-4[8:1],,1,,2-6[8:1]/8,,1,,2/7^4[8:1],,8,,1/7,,3,,
3-8[8:1],,7-3[8:1],,3>5b[8:2],,7,,,,,,2-5[8:1],,1,,
2/7-4[8:1],,8,,7/2-8[8:1],,3,,2pp2b[16:4]/6,,7,,2-6^1[16:5],,5x,5xh[16:7],
,,,,,,,,74,,25,,7,8,5p1[8:1],4,,,5/6,,7,8,5p1b[8:1],4,,,5/6,,8,,82,,
7v4-6[4:1],,8/1,,2x,2x,,3x,3,,4/5,,1,7,3,5,
1bh[8:12],
,,,,,,,,,,,,,,,
3x,,,,3x,,,,{64}D4,A4,D5,A5,D6,A6,D7,A7,D8,A8,D1,,,,,,{8}Cf,,
{16}28,,2,4,3,4,2,,71,,7,5,6,5,7,,
28,,2,4,3,4,2,,1v4[8:1]/7v4[8:1],,8x,,1bx/7bx,,,,
71,,7,5,6,5,7,,28,,2,4,3,4,2,,
71,,7,5,6,5,7,,4v1[8:1]*v7[8:1],,3x/5x,,4bx,,,,
28,,2,4,3,4,2,,71,,7,5,6,5,7,,
28,,2,4,3,4,2,,5pp7[32:5]*qq3[32:5],,37,,5,,,,
2x/8x,,2,1,,7,8,,4x/6x,,3,4,,6,5,,
3b/4b,,,1b/2b,,,8b/7b,,6b-3[8:1]/7bq3[8:1],,,,{96}6bx/7xb,E7f,
