&title=Life is beautiful
&artist=BEMANI Sound Team "猫叉Master"
&first=0
&des=おにねこ
&lv_5=14+
&inote_5=(155)
{1},
{4},,,,
{8}
7<4[8:2],,1,,,,1,,
4<7[8:2],,1,,2h[8:2],,1h[8:1],5>2[8:2],
,,1,,,,2h[8:1],4,,,7h[8:1],5,{16}6,6,3-6[8:1],,
{8},,8qq5[8:6],,3,,3,,3,,3qq8[16:9],,5,,5,,5,6qq3[8:5],8,
,8,,8,,8,1h[8:1],
{16}8h[8:1],,2h[8:1],,7h[8:1],,3h[8:1],,6h[8:1],,4h[8:1],,5,,{24}4pp7[16:7]*qq1[16:7],53,62,
{8}71,,,,,,26,8h[8:1],
{16}
3h[8:1],,6,4,5h[8:1],,2,4,3h[8:1],,7,,2,8,
1h[8:1],,7,5,6h[8:1],,3,5,4h[8:1],,6,5,7,8,5,4,6b,,
2h[8:1],,7,4,5h[8:1],,1,4,3<6[8:1],,4,4,3>1[32:3],,8,8,3,,6,6,8h[8:1],,
5h[8:1],,{24}8,1,2,3,4,5,8,1,2,3,4,5,
{16}1b,,2,5,4h[8:1],,8,5,6h[8:1],,3,4,1h[8:1],,4,3,
7h[8:1],,5,6,2h[8:1],,6,5,8h[8:1],,4<7[8:1],5,2>4[32:3],,,,,,,,
6,5,5,4,6,,3,4,4,5,3,4,{24}2,3,4,5h[8:1],,,2,3,4,5h[8:1],,,{32}2,3,4,5,6,7,8,1,{16}5b,,,,
7h[8:1]/4,,4,5,8h[8:1],,6,5,7h[8:1],,2,,5,4,
1h[8:1],,3,4,2h[8:1],,5,4,1h[8:1],,3,4,2,1,4,5,1,8,
3,,3,6,4h[8:1],,8,5,6<8[32:3],,1,1,6q2[32:4],,3,3,6,,5,5,1h[8:1],,
3h[8:1],,{24}1,8,7,6,5,4,1,8,7,6,5,4,{16}8b,,
4,4,7<5[32:3],,8,8,7b,,3,3,4,,
1,1,6<8[32:3],,5,5,6b,,2,2,1,,
4>2[32:3],4,7<4[8:1],,,,,,,,
3,4,4,5,3,,6,5,5,4,6,5,
7b,7,{16}2,2,{16}4,3,6,5,
{24}7qq6[32:5],5qq4[32:4],7,{16}5,,,,,,
{8}7h[8:3],4,2,8h[8:3],5,3,1h[8:3],6,4,2V41[16:6],,,,,8,7,6,{24}6,5,4,3,,,3,4,5,6>3[8:1],,,,,,,,,,,,
{8}2h[8:3],5,7,1h[8:3],4,6,8h[8:3],3,5,7<4[16:2],,,3,1h[8:1],{16}7,1,5,3,4,,{24}4,5,6,7-4[64:7],,,5-8[8:1],4,3,2-6[8:1],,,,,,,,,,,,
{16}4,,3,4,1h[8:1],,4,,5,4,7h[8:1],,4,,2,4,1h[8:1],,4qq1[16:10],,6,5,7<4[8:1],,8,,7b,,{24},,,,,,8,7,6,5,,,7,6,5,4,,,6,5,4,3,,,5,4,3,2,,,
{16}4,3,6,5,7h[8:1],,5,7,3,5,2h[8:1],,4,1,6,3,8h[8:1],,5p1[16:2],,7p3[8:1],,8-4[8:1],,,,,,7,,
{24}7,5,7,5,,,2,4,2,{16}4,3,7,4,6,6,5,5,{32}7b,6,5,4,3,,,,
{16}
1<6[32:4],2,3,4,5,,5<8[8:1],4,3,2,1,,
1<6[32:4],2,3,4,5,,5pp6[16:3],4,3,2,1,,
1,2,3,4,2,3,4,5,
8<5[32:4],1,2,3,4,,4<7[8:1],3,2,1,8,,
8<5[32:4],1,2,3,4,,4pp5[16:3],3,2,1,8,,
8,1,2,3,1,2,3,4,
7-4[8:1],8,1,2,3,,3-6[8:1],2,1,8,7,,
1-6[8:1],2,3,4,5,,5-8[8:1],4,3,2,1,,1,2,3,4,2,3,4,5,
1>4[32:3],,,14,,,6<1[32:3],,,61,,,3<6[32:3],,,36,,,8b>3[32:3],,,8b/3b,,,5b-1[32:4],,,,65,,,,
{16}
8-4[32:4],7,6,5,8,,5-2[8:1],6,7,8,5,,
7-3[32:4],6,5,4,7,,4-1[8:1],5,6,7,4,,
8,7,6,5,7,6,5,4,
1-4[32:4],8,7,6,1,,6-2[8:1],7,8,1,6,,
8-4[32:4],7,6,5,8,,5-2[8:1],6,7,8,5,,
{24}1,8,7,6,5,4,7,6,5,4,3,2,
{16}7b,8,7,1b,8,1,5b,4,5,3b,4,3,
8qq3[8:3],,73,,8,,5,4,3,2,1h[8:2],,7,6,5,4,1,2,3,4,
5<7[16:1]/7,,,54,,,2>4[16:1]/1,,,25,,,7>1[16:1]/6,,,72,,,4bq5[16:4]/5b,,,,,,8bq1[16:4],,,,4,,,,
2q3[16:7],,,4h[8:1],,,4,,
3qq4[16:7],,,,6h[8:1],,,,
4q5[16:7],,,7h[8:1],,,7,,
5qq6[16:7],,,,8h[8:1],,,,
6qq2[32:13],,,8<5[32:2],,,8,,,,,7,7,,1h[8:1],,
3-6[16:2],,,1>5[32:5],,,1,,7-2[8:1],,,,5h[8:2],,,,
{32}8,7,6,5,4,3,2b,1,8qq8[32:8],7,6,5,4qq1[32:10],3,2,1,
{16}8b,,,,,,{24}7,6,5,{16}4h[16:2],,3,7h[16:2],,8,6,,1>4[8:1]/4q8[8:1],,,,14,,,,
7/5,,6,5,74,,6,4,7<4[32:4]/3,,6,3,72,,,,3h[16:2],,4,8h[16:2],,7,1,,3b/5b,,2h[8:1],,
4-1[8:1],,2,3,4,,
7,7,8>3[8:1],,4,4,8,,
7b,,5b>2[8:1],,6,6,5,,
8,8,1>4[8:1],,4,4,1,,
7,7,6>3[8:1],,1,1,6,,
8,8,,3,4,,25,,6,5,,8,8h[8:1],,
6-3[16:2],,,8<4[32:5],,,8,,2-7[8:1],,,,4h[8:2],,,,
{32}1,2,3,4,5,6,7b,8,1pp1[32:8],2,3,4,5pp8[32:10],6,7,8,
{16}1b,,,,,,{24}2,3,4,{16}5h[16:2],,6,2h[16:2],,1,3,,
{24}8-4[8:1],7,6,2,3,4,{16},,,,
{24}
1b,2,3,4,5,6,1,2,3,5,6,7,
2b,3,4,5,6,7,2,3,4,6,7,8,
3b,4,5,6,7,8,3,4,5,7,8,1,
{32}4bq2[32:5],5,6p8[32:3],7,8,1,2,3,
{16},,,,
7<4[32:3],,,7h[16:5],,,,,
1>4[32:3],,,1h[16:5],,,,,
6<1[32:4],,,6h[16:5],,,,,
4>1[32:4],,,41,,,,,
3q8[32:3]/7<4[32:3],,,37,,,,,
6p1[32:3]/2>5[32:3],,,62,,,,,
3q8[32:3]/8<4[32:3],,,38,,,,,
6p1[32:3]/1>5[32:3],,,61,,,,,
8h[8:1],,2h[16:1],4h[8:1],,1h[16:1],7h[8:1],,5h[16:1],6h[8:1],,2,
4,4,3,5,5,4,6,6,5,{32}7,,5,,6,,
{16}4,4,5,3,3,4,2,2,{32}4,5,6,7,1,2,3,4,
{16}6h[16:1],5h[16:1],7h[16:1],3h[16:1],4h[16:1],2h[16:1],6h[16:1],4h[16:1],8h[16:1],3h[16:1],5h[16:1],1h[16:1],
6b>3[32:3],,78,6b/1b,,,
2b>5[32:3],,18,2b/7b,,,
8bz4[32:4],,63,8b/1b,,,
