&title=REAL VOICE
&artist=達見 恵 featured by 佐野 宏晃
&first=0
&des=Cinno Vs. Skylight
&lv_6=13
&inote_6=(183){1},
{8}3/8h[8:3],,,B2/B3,,,,2h[2:1]/6,,,,B5/B6,,,,,
{8}8h[8:7]/4,,,B3,,B2,,1h[8:5],,,,7h[8:3],,
{16}2x,3x,4x,,,,
{8}35,3,26,1-4[8:1],,71,,1-6[8:1],,21,,1>4[8:1],,16,7,8,
{8}1h[8:3],5,4,3-8[4:1],,8pp4[2:1],,7xh[8:7],,,,,,B3,B2,,
{8}1x,,1,,1/7,,1/6,,5,,5,,52,,53,,4h[2:1],,5,,6<8[8:1],,3,,
{8}2,2h[4:1],,8,7,7,3,3,
{8}6<3[2:1],,4,,4,,5,,6<3[2:1],,5,,5,,4,,
{8}4qq8[2:1],,8,,7,,6,,5<2[8:3],5,,3h[2:1],,,,,
{8}8h[8:3],,1,1>3[8:1],,7,7,,
{8}2h[8:3],,6,6-8[8:1],,4,4,,
{8}5>2[8:1],,8<5[8:1],8,,3,3,,
{8}8-5[8:1],,3-8[8:1],3,,4,4,,
{8}5h[4:1],,2>4[8:1],2,,6<8[8:1],6,,
{8}3h[4:1],,7-5[8:1]b,7,3x-1[8:1]b,,,,
{8}7,7h[8:2],,8,,61,52,34,,
{16}2,2,5,,3x-1[8:1]*-7[8:1],,,,,,,,,,
{4}8bh[1:2],E8,E1,E7,E2,E6,E3,E5,4xbh[1:2],B4,B5,B3,B6,B2,B7,B1,
{8}8xb,,17,17,26,26,35,35,1xb,,28,28,37,37,46,46,
{8}5<4[8:11],,,3h,,2h,,1h,
{8},8h,,7h,,6h,,
{8}73,7<4[8:1],,71,1-5[8:1],,1-4[8:1]*-6[8:1],,1bx,,,,
{8}8-4[8:1],4>6[8:3],,
{16}5,,,5h[16:5],,,,,,,
{8}1-5[8:1],5<3[8:3],,
{16}4,,,4h[16:5],,,,,,,
{8}1,1-5[8:1]*-7[8:1],,1,,
{2}8h[4:1]/1-3[8:1],7h[4:1]/1-4[8:1],6h[4:1]/1-5[8:1],1-6[8:1]*-4[8:1],
{8}5x<8[8:1],,3,4,5>2[8:1],,7,6,
{8}5-8[8:1],,3,4,5-2[8:1],,7,8-6[8:1],,8-5[8:1],,8-2[8:1],,8-3[8:1],,8z4[4:1],,,,
{8}2x,2xh[4:1],,
{32}B6,B5,B4,B3,B2,B1,B8,B7,B6f/1x,,,,,,,,
{8},1-5[8:1],5<3[8:3],,
{16}4,,,4h[16:5],,,,,,,
{8}8,8-4[8:1]*-2[8:1],,8,,
{2}1h[4:1]/8-6[8:1],2h[4:1]/8-5[8:1],3h[4:1]/8-4[8:1],8>3[8:1]*<5[8:1],
{8}4x>1[8:1],,6,5,4<7[8:1],,2,3,
{8}4-1[8:1],,6,5,4-7[8:1],,2,1-3[8:1],,1-4[8:1],,1-7[8:1],,1-6[8:1],,1s5[4:1],,,,
{8}7x,7xh[4:1],,4,3,62,,1,6h[4:1]/4h[4:1],,,8,3h[4:1]/5h[4:1],,,
{8},35,4-1[8:1]*-7[8:1],,,,
{16}26,,3,4,5,,2b-8[8:1]/6b-8[8:1],,,,2b-4[8:1]/6b-4[8:1],,,,2b/6b,,,,17,,
{12}2x,3x,4x,6x,7x,8x,5x,4x,3x,2x/6xh[2:1],,,
{8}1,1,2,2,35,35,4h[2:1],,8,8,7,7,64,64,
{16}5h[8:1],,3,,2,4,2,,3h[8:1],,5,,4,6,4,,
{8}7<4[8:1],,1w5[8:1],,1,,28,,
{16}1x-3[8:1],,,8,1,,7x-5[8:1],,,1,7,,2x-5[8:1],,,8,2,,8x-4[8:1],,,1,8,,
{16}3x,,2x,,1x>3[8:1],,,7,1,,5x-1[8:1],,,2,5,,3x<5[8:1],,,6,3,,
{16}7x-5-1[4:1]b,,,,,,,,,,,,7x<5[8:1],,,4,7,,3x-1[8:1],,,6,3,,8x-4[8:1],,,2,8,,
{16}1x>3[8:1],,,5,1,,6x,,7x,,,,
{16}3x/7x,,4,5,6,,3x/7x,,8,1,2,,3x/7x,,4,5,6,,3x/7x,,,
{16}2x/6x,,,1x/5x,,,4x/8x,,,3x/7x,,,2xbh[16:7]/6xb,,,,,,,
{4}E8f/B8/B7/E7/A7/D8,
{8}3h[4:1],1,1,8h[4:1],6,6,5h[4:1],1,1,8h[2:1],6,5,4,3>8[8:1],,,
{16}4,5,6,7,1,2,3,4,1,8,7,6,
{16}3,2,1,,7h[16:3],,,5h[16:3],,,3,,3h[16:3],,,,
{16}8xw4[8:1],,,,8b,,,,,,,,1,,,2,
{8},3,,8-6[8:1],,85,,4-2[8:1],
{16},,4/6,,,,,,,,5,3,5h[2:1],,,1,
{16},,2,,3,,,46,,,37,,,28,,,
{16}1,,,,2,8,2,8,2,,7,1,7,1,7,,
{16}B1/B2/E2,,,,6,5,6,5,6,,3,4,3,4,3,,
{16}E6/B5/B6,,,,14,,,25,,,36,,58,,,47,
{8},36,2pp5[2:1]/5pp8[2:1],,,,,,
{4},1xb/Cf,,,
{1},
{4},3h[2:1]/7h[1:2],,,,1h[2:1],,,
{4},5>1[2:1],,7,
{12},,,4<8[2:1],,,,,,2,,,
{24},,,,,,2pp5[2:1],,,,,,,,,1,,,1,,,8,,,
{16}7,,,,
{8}6h[4:1],4,3,2x,2xh[4:1],,
{32}B6,B5,B4,B3,B2,B1,B8,B7,B6f/1x,,,,,,,,
{8},1p5[8:1],5<3b[8:3],,
{16}4,,,4h[16:5],,,,,,,
{8}8,8-4[8:1]*-2[8:1],,8,,
{4}1h[4:1]/8-6[8:1],8,2h[4:1]/8-5[8:1],8,3h[4:1]/8-4[8:1],8,8>3[8:1]*<5[8:1],8,
{8}4x>1[8:1],,4/6,5,4<7[8:1],,4/2,3,
{8}4-1[8:1],,46,5,4-7[8:1],,42,1-3[8:1],,1-4[8:1],,1-7[8:1],,1-6[8:1],,1s5[4:1],,,,
{8}7x,7xh[4:1],,4,3,62,
{16}1,8,1,,6h[8:1]/4h[8:1],,,,8,1,8,,3h[8:1]/5h[8:1],,,,8,1,
{8}8,35,4-1[8:1]*-7[8:1],,,,
{16}26,,3,4,5,,2b-6[8:1]/6b-2[8:1],,,,2b>5[8:1]/6b<1[8:1],,,,2xb/6xb,,,,4x/8x,,
{12}7,5,6,2,4,3,6,4,5,3h[4:1],,,
{16}6,4,6,4,5,3,5,3,7h[4:1],,,,
{16}3,1,3,1,2,8,2,8,1h[4:1],,8,,7,,,,
{16}6h[8:1],,4,,5,3,5,,3h[8:1],,5,,4,6,4,,
{4}5-1[8:1]*-2[8:1],5b,8-5[8:1]/3-6[8:1],8<8[4:3]/3<3[4:3],,,,,
{16}1-3[8:1],,,,1/7<5[8:1],,,,7/2-6[8:1],,,,2/8-4[8:1],,,,
{16}8/1>3[8:1],,,,1/5-1[8:1],,,,5/4-2[8:1],,,,
{16}8-6[8:1]*-5[8:1],,,,8>3[8:1],,,,4-8[8:1],,,,
{16}4-7[8:1]*-1[8:1],,,,4>5[4:3]*<3[4:3],,,,A4f/D5/D4,,,,,,,,,,,,,,,,
{16}7<5[8:1],,,,7/3-1[8:1],,,,3/8-4[8:1],,,,
{16}8/2,,2>5[8:1],,,,2/6-1[8:1],,,,6/4-8[8:1],,,,
{16}4/7<4[8:1],,,,7/1b-5[8:1],,,,1b-4[8:1]*-6[8:1],,,,1bw5[8:1],,,,1b,,,,,,
{16}37,,6,5,4,,2b-6[8:1]*-5[8:1],,,,2b,,,,7b-4[8:1]/4b-8[8:1],,,,4b/7b,,,,
{16}1b>4[8:1]/5b<8[8:1],,,,1b/5b,,,,
{16}7bqq4[8:27]/3b-8[8:1],,,,,,,,,,,,,,
{16}3x,2x,1xpp4b[8:19],,,,,,,,,,,,,,,,,,,,,,,,,,,,,,
{1},
{16}B4,B3,B2,
