&title=冒険でしょでしょ?
&artist=平野绫
&first=0
&des=シャミセン
&lv_5=13
&inote_5=(150)
{1},
{8},,1<6[8:2],,,,,,
5<4[8:8],,,,,,,,5<4[8:4],,,,5<4[8:2],,,,
{8}
5,,,7V51[16:5],,,,,
3h[8:4],,,,4-6<7v1>2-4b[16:25],,,{32},,,,
{8}C,,,,,,,{32},,C,,
{8},,,,{32}5,6,7,8,1,2,3,4,
{8}8w4[8:1],,8b,,
24,3h[8:1],6h[8:1],5p4[32:11],7,
5b,,6pp4[32:11],,6b,,2-5[32:5],,,,,
75,6h[8:1],3h[8:1],4q6[32:11],2,
4b,,3qq6[32:11],,3b,,7<2[32:7],,,1>6b[32:7],,,,
{16}E8,E4,E7,E3,E6,E2,E5,E1,
{8}7x<4[8:1],,8,,3<6[8:1],8,,7<4[8:1],,
8,,2-7[8:1],3-6[8:1],,,,8<5[8:1],,,,
4>1[8:1],1>4[8:1],4q7[8:3],,,,8,8-4[8:1],,1
,1b,,
{8}2>5[8:1],,1,,6>3[8:1],3V17[16:4],,7<3[16:4],,
4,,1-4[8:1],1q6[8:1],,,,7<4[8:1],,,,3-8[8:1],8q5[8:1],,
5b<6-1[32:4]*-2[32:4],,,,3b<6-1[32:8]*-5-2[32:8],,,,,
1-4[8:1]/5,,15,,5/4qq5[16:5],,5/4,6pp5[16:5],7,6,4,3,B2f,,,
18,1,6,3,8,6>3[8:1],3,,
1,3,6,8,3<6[8:1],6>3[8:1],1b,8b,,
2v5[8:1]/8v5[8:1],,28,,
5/4,,54,6<7-5-2b[16:4],5,6,2,1,{32}D2,D3,D4,D5,
{8}
D6,8,7b/8b,,1,2,1b/3b,,8,7,5b/8b,,1-5[8:1],2,5b/1b,,
4qq1[8:4]/7qq4[8:4],8,,,,,,,4/2,8-3-7[16:4]/1-3-5[16:4],6bx,,,,
,{48}A5,D6,A6,D7,A7,D8,A8,D1,A1,D2,A2,D3,
{8}3x>7[32:5]*p6[32:5],,3b,,3>6[32:5]*p5[32:5],,3b,,
4,3/5-7p2[32:8],,2,1,8>5[16:4],,4,6-2[8:1],8,,
,3/5-3b[32:3],,5/6-2b[32:4],,67,7-1b[32:3],,5,4,42,,
5h[8:2]/6,7,8,1q5[8:1]/4>2-8[8:1],,,,6<1[32:4]/8x,,6,5qq4[32:7],,
1,8,7>8-6>3[32:9],,3,1pp1[8:2],8,,,7v1[8:1]*v4[8:1],,7b,,
25,36,,7/4-8[8:1],63,42,{16},,2,4,3,5,4,6,
{8}5bp7[4:1],,7q1[16:5],,,,5,6>3[16:2],,8qq6[32:5],1,2pp4[32:5],,,,,
8b/1b,,3-8[8:1]/4,,7,,5-7>8[8:1]*-3>2[8:1],8v5[16:2]/2v5[16:2],,,,4b/6h[8:2],,
3h[8:2],,{24}6,5,4,{8}3-5-2-6[16:6],,5,6,7h[8:2],,8h[8:2],,
{8}5-8[8:1],8-6-2-4[32:9],1-4[32:5],,,{32},,,,B8/C/B4,,,,,,,,
{8}1b/6,54,43,8b/2,34,45,
6/2b,45,34,5b/2,34,45,
6b/5h[8:2],,4pp7[8:5],,3p8[16:11],,
{8}
,,,,,,,,,,5<4[8:4],,,,
4b-8<5-1>4b[8:7],,,,,,,
4b-8<5-1>4b[8:8],,,,,,,,
4b-8<5-1>4b[8:8],,,,,,,,
4b-8<5-1>4b[8:9],,,,,,,,,
4b-8<5-1>4b[8:7],,,,,,,
4b-8<5-1>4b[16:10],,,,,
{16}4x<8[32:5],,,,,,,,
{8}1,3,42,3>7[16:3]/5,,
8,6,5<2[16:4],,1,3,4>6[8:2],,
7,5-1[8:1],,4b,,
2h[8:1],4h[8:1],6h[8:1],7qq4[8:3],5,7b,,
3,2,1b>7[8:2],,8,8-4[8:1],,5b,3-7[8:1],2,1b,,
6/4,75,8h[8:2]/6b,,1h[8:2],{24}E3,B3,B4,B5,B6,E7,
{16}8xv1[32:5],,,,,,,,
{8}54,,7hb[8:1],1h[8:1],3hb[8:1],2-8-3<6[32:12],8,2b,,
5,7,6/1b-7-4[32:7],,2,2h[8:2],,6bh[8:1],8hb[8:1],1hb[8:1],3bh[8:2],,
4b,2b/1b,7b>6qq5b[16:14]/6b,,,,{24}E8,B8,B1,
{8}E2,,,,
{4}8h[4:4],,,,4h[4:4],,,,7q1[8:6],,,,3q5[8:6],,,,
{4}6h[4:4],,,,2h[4:4],,,,7>2v4[8:8],,,,3h[4:4],,,,
{4}7h[4:4],,,,{8}2h[4:1],,7,8v5v8[16:11]/1v4v1[16:11],,,,,,,,,
27,2-4-1[32:7],,4b,,7-5-1[32:7],5,7b,,
2-4-7[32:7],4,2b,,8<5-2[32:7],5,8b,,
1,28,3h[8:2]/7,,4,7,6h[8:1]/5,2,5/4>6b[8:7],28,
Ch[48:51],,,,,,,,{48},,,B8/B4,E1/E5,A1/A5,
{8}D2/D6,,,
2h[8:1],{32}
A1,A8,A7,A6,A5,A4,A3,A2,
{8}1xpp3[8:1]*-7[8:1],,1b,,2pp4[8:1]*-7[8:1],,2b,,6,
8<5[8:1]/5,,5,3,1>4[8:1]/4,,5-1[8:1],7-3[16:2],5,7,,
2>5[8:1]/4-8[8:1],,24,,65,7>2[8:1]/4,,2-6[8:1],6>3[8:1],3,,
1,4<7[8:1]/2<7[8:1],3,4-8b[8:1],,4b-1[8:1]/6bp1[8:1],,,,
28,4h[8:2]/5,,6<1[8:1],4,2,,2>5[8:1],8qq1[32:7],6,,,
4-1[8:1]*-7[8:1],,4,,6,3/4-8[32:4],,3,1,2h[8:2]/7,,
{16}4,2,5,2,6,2,
{8}7-3[8:1],,8-4[8:1],,1-5[8:1],,2,2,,8-2-6-3-5[8:4]/7-2-6-3-5[8:4],87,,,,
,,2-6[8:1],,2/1-5[8:1],,1/8-4[8:1],,87,7<4[8:1],,5,3,
1>4[8:1],,1<6[8:1],5<8[8:1],1,,,
2-7[8:1],,6-3[8:1],,5,,
2-7[8:1]/6-3[8:1],3-6[32:4]/7-2[32:4],,,,{32}7,6,5,4,3q7[8:1],2,1,8,
{8}7,
3b,8p4[8:1],6,
8b,2q6[8:1],4,
2b,7-4[32:4],5,
7b,3<6[8:1],4,
3b,,8<1[16:6],,4h[8:4],,,,
{16}E2,E3,E4,E5,E6,E7,E8,E1,
{16}C,,,,,,,,4,,4,5,3-8[8:1]/6-1[8:1],,,,
{8}
Cf,,2/7,6,2/5,4-8[16:2],2,4b/3-6[8:1],
,3b/7-4[16:2],,7b/5qq1[8:3],,1b,,,
8,,7/2,3,7/4,5-1[16:2],7,5b/6-3[8:1],
,6b/2b-5[16:2],,2b/4pp7[8:3],,7b,,,
1b,,3b/5,1,4b/6,1-3b[8:1],5,1b-4b[8:1],
7,1b-5b[8:1],5,1b-6b[8:1],6-1[8:1],1b,,,
8b/2,,6b/4,8,5b/3,8-6b[8:1],4,8b-5b[8:1],
2,8b-4b[8:1],4,8b>3b[32:4],3<8[32:6],8,,,
{4}5s1>1s5[8:30],,,,,,8h[4:10],,,,,,,,,,,,,,,
