&title=純真可憐デザイア
&artist=濵田有共; Fernweh
&first=0.25
&des=Cart
&lv_5=13+
&inote_5=(182){4},,,,
{16}1>4[4:3],,,,,,,,,,,,,,,,8<5[2:1],,,,,,,,,,,,,,2,3,4p1[4:3],,,,
{8}6,5,,6,5,,6,5,,6,5,,6,,
{8}1-4[2:1]/8,,8,7,,7,6,,6/4-1[2:1],5,,,,,,
{16}7,6,5q8[2:1],,,,
{8}2,3,,2,3,,2,3,4,5,6,7,8,1,
{16}2-5[8:1],,,,2/8,,,,7-4[8:1],,,,1/7,,,,8h[4:3]/2-5[8:1],,,,2,,,,1-4[8:1],,,,1,,7,6,5h[2:1]/2-4[8:1],,,,2,,,,1-4[8:1],,,,1,,,,5h[4:1],,,,4,5,4,5,4,5,4,5,4,5,4,5,
{16}3b-6[8:1],,,,,,8h[4:1],,,,,,1,7,2,6,3b-8[8:1],,,,,,6h[4:1],,,,4,5,3,4,2,,
{8}1b-4[8:1],7,,8b-5[8:1],2,,1b-5[8:1],,8b,8,8,8,
{16}8,1,8,1,8-4[8:1],1,8,1,8b,,,,
{8},2-4[8:1],6,2,,8<5[4:1],,5>2[4:1],,2-6[8:1],,,4,4,3-8[8:1],,3/7-4[8:1],7,,2-5[8:1],,8-4[8:1],,8/3,2-6[8:1],,,7h[8:3],,,1b,,,
{8}8-5[8:1],2,8,,3h[4:1],,2h[4:1],,1h[4:1],,8h[4:1],,2-5[8:1],2,,,
{16}6,4,6,4,7-3[8:1],,8,,7/1-5[8:1],,,,1/4-8[8:1],,,,2>2[8:3]/4,,,,2/7,,,,,,,,,,,,
{8}7,6,5>2[8:1],,8<5[8:1]/5,,8/3>8[8:1],,3/6,,,7h[4:1],,6h[4:1],,5h[8:1],4,,3b-6[8:1],,7/3,,8-5[8:1],8,,,,
{8}3,,4h[8:3]/6,5,6h[32:1],5,6h[8:3]/3,4,3h[32:1],4,3h[4:1]/6,5,6h[32:1],5h[4:1],,,3,,2/6,,1,
{16}1,7,1,7,1,7,1,7,1,7,1,7,1,7,1,7,,,
{8}2,,,,2V46[8:3],,4,6<6[1:1],,,,,8,,1<6[8:1],1,,,
{8}8,,7V53[8:3],,5,3>3[1:1],,,,,1,,8>3[8:1],8,,,
{8}1,,2V46[8:3],,4,6<6[1:1],,,,,8,,1<6[8:1],1,,,
{8}8,,7V53[8:3],,5,3>3[1:1],,,,,,,,,,,,,
{8}5h[8:3]/3,4,3,2,6/3h[8:3],5,6,7,2/7h[4:1],3,4,6/4h[4:1],7,8,1h[4:1],,7,,6,5-1[8:1],,5/3-7[8:1],,2/3,,,1-4[8:1],1,,,,,
{16}3,5,3,5,3,5,3,5,2,6,2,6,2,6,2,6,1,7,1,7,1,7,1,7,2,8,2,8,2,8,2,8,1,1,1,1,1,1,1,1,1,1,1,1,1,1,,,,,
{8}2,3/6,2/7,
{32}1,2,3,4,5,6,7,8,
{8}1,7b-3[8:1],,2/7,1b-5[8:1],,,
{8}8-5[8:1],,3-8[8:1]/8,,3/6,
{32}7,6,5,4,3,2,1,8,7h[4:1],,,,,,,,
{8}1b-4[8:1],,1b/5h[4:1],,,2-6[8:1]/6-2[8:1],2/6,,,3/8,2/5,4/7,1/5,3h[4:1]/7h[4:1],,,
{8}8-4[8:1],,8/2h[4:1],,,2,1-5[8:1]/7h[4:1],,,7,8-4[8:1]/3h[4:1],,,3,1-5[8:1]/5h[4:1],,,
{16}7V51[8:1],,7,,,,,,2,,
{32}2,3,4,5,6,7,8,1,2,3,4,5,6,7,8,1,
{8},7,3/5,2/4,3/1,
{32}8,1,2,3,4,5,6,7,
{8}8b-4[8:1],,3/8,2-6[8:1],,,7-4[8:1],,5-2[8:1]/7,,5/6,6h[8:3],,,,
{16}2b,8,2,8,3b,7,3,7,3,7,4,,5-8[8:1]/3,,,,,,
{8}1,2/7,3/4,1/6,2h[4:1]/8,,7-3[8:1],,1s5[16:3],,,,
{8}7,8-4[8:1]/2h[4:1],,,1,8-4[8:1]/6h[4:1],,,7,8h[4:1],,1,1/7h[2:1],,2,2h[4:6],
{16},,6,,,6,,,6,,,,7,6,5,,4,5,6,7,8,,7,,6,,
{8}3/5,3/5,4/6,4/6,5/7,4/6,3/5,2h[4:1]/4,,
{16}7,5,6,,2,4,3h[4:1],,,,8,,1,,
{16}8,7,6,5,7,6,5,4,6,5,4,3,5,4,3,2,8,3,8,3,7,4,7,4,6,5,6,5,
{16}6,,4,,3/5b<8[8:1],,,,5/2,,1b-5[8:1],,,,7b-3[8:1]/1,,,,4b>1[8:1]/7,,,,4b/6b,,5b,,
{8},,,,4/6,,3,3/5,3,3/5,3,3/5,6,7,5,5/7,5,5/7,5,5/7,5,2/8,2,2/1,2,2/7,2,1/7,6,1/7,
{8}6,6/4,6,6/3,6,2/5,5,1/4,1,
{16}8/1,2,3/8,4,5/8,,8,,6/8,,7,,
{8}1/6,4,4/1,3,6/1,5,1/3,5,
{16}3,7,3,7,3,7,3,7,
{8}1-5[8:1],2,1/8,7,,
{8}4/7,2/6,1-5[8:1]/8-4[8:1],3/6,1/8,,
{8}2-6[8:1],,2/7,8h[4:1],,,5-1[8:1],,5/7-4[8:1],,2/7,3h[4:1],,,,
{8}3b-8[8:1]/6b-1[8:1],,3b/6b,,,1w5[8:1],1,,,3/8,2,1/6,7,8-4[8:1],,1,,
{8}7h[4:1]/3,4,2h[32:1],3,2h[4:1]/5,6,5h[32:1],6,3/5,3,
{8}4/7-2[8:1],6,7/4-1[8:1],3,6-3[8:1]/4,5,8h[4:3]/6,,,,,,,
{8}3/8,1-5[8:1]/2,,1/2-6[8:1],,1-4[8:1]/2,,1/8-4[8:1],,1/8,,
{8}2,3/7,6,2/5,3,4/6,3,3/5,
{8}7,2/5,7,1/5,2/7,3/4,4/7,3,1,3/5,1,3/6,1/5,3/7,1/5,
{16}8,,1/7,6,5/1,4,3/1,,8/2,3,8/4,5,8/6,,8q1[4:1],,E
