&title=STYX HELIX
&artist=MYTH & ROID
&first=0
&des=luvlily
&lv_5=11+
&inote_5=(123){1},
{16},,,,,,,,,,,,,,,,
{16}2>6[4:1],,,,6<2[4:1],,,,2>6[4:1],,,,6,,7,,
{16}8>4[4:1],,,,4<8[4:1],,,,8>4[4:1],,,,4,,,,
{16}8^2[8:1]*^6[8:1],,,,,,,,1^7[8:1]*^3[8:1],,,,,,,,
{16}8pp2[8:1]*qq6[8:1],,,,,,,,1,,8,,7,,6,,
{16}4>8[4:1],,,,8<4[4:1],,,,4>8[4:1],,,,8,,7,,
{16}6>2[4:1],,,,2<6[4:1],,,,6>2[4:1],,,,2,,,,
{16}8-4[8:1],,,,8h[4:1],,,,1-5[8:1],,,,1h[4:1],,,,
{16}7-3[8:1],,,,7h[4:1],,,,2-6[8:1],,,,2h[4:1],,,,
{16}5-1[8:1],,,,5h[4:1],,,,4-8[8:1],,,,4h[4:1],,,,
{16}1,,,,,,,,,,,,,,,,
{16}35,,,,,,,,,,,,,,,,
{16}74,,,,,,6,5,6,,,,,,4,5,
{16}4,,,,,,3,4,3,,,,25,,,,
{16}1,,,,7,,7,,4,5,,6,5,,46,,
{16}8,,,,2,,2,,5,4,,3,4,,35,,
{16}1<2[2:1]*>8[2:1],,,,,,,,,,,,,,1,,
{16}2-6[8:1],,,,6^3[8:1]*^1[8:1],,,,,,,,2,,3,,
{16}4v2[4:1],,,,,,,,6v4[4:1],,,,,,,,
{16}8v6[4:1],,,,,,,,,,,,,,,,
{16}3,4,,4,2,,1,,6,5,,5,7,,8,,
{16}2,1,,1,3,,4,,7,8,,8,6,,5,,
{16}5>1[4:1]*<1[4:1],,,,,,,,,,1,,8,,3,,
{16}2b^4[8:1]/5b^7[8:1],,,,2/5p1[8:1],,,,5/8p4[8:1],,,,68,,7,,
{16}3-1[8:1]/8-4[8:1],,,,3/8>6[32:8],,,,5/8,,,,,,1,,
{16}8^3[8:1],,7,,,,6,,4^7[8:1],,3,,,,2,,
{16}3,,5,4,5,,6,5,7w3[8:1],,,,7b,,,,
{16},,15,,15,,,,48,,4/8<3[16:5],,,,3,,
{16}2,,1,,1,,,,2h[16:3]/8,,,4h[16:3],,,5h[8:1],,
{16}7q6[16:7]*>6[16:7],,,,,,,,,,,,,,8,,
{16}1>6[4:1]/8q6[4:1],,,,,,,,,,8,,1,,6,,
{16}7b^5[8:1]/4b^2[8:1],,,,7/4q8[8:1],,,,4/1q5[8:1],,,,31,,2,,
{16}6-8[8:1]/1-5[8:1],,,,6/1<3[32:8],,,,4/1,,,,,,8,,
{16}1p4[8:1],,2,,,,3,,5p8[8:1],,6,,,,7,,
{16}6,,4,5,4,,3,4,2pp6[16:5]*qq6[16:5],,,,2b,,,,
{16},,,,7-3[8:1],,,,8-4[8:1],,,,1-5[8:1],,,,
{16}2-6[8:1],,,,,,,,5/7h[16:3],,,1h[16:3],,,4qq3[4:1],,
{16}6qq5[4:1]/3,,,,,,,,1-5[8:1],,,,1/8,,7,,
{16}6-8[8:1]/4-8[8:1],,,,6<3[4:1]/4,,,,1h[4:1],,,,,,1,8,
{16}2bp5[4:1]/7b,,,,5>1[4:1],,,,1p4[4:1],,,,4>8[4:1],,,,
{16}8p3[4:1],,,,3>7[4:1],,,,7p2[4:1],,,,2,,,,
{16}1v4[8:1]*v6[8:1],,,,1<3[32:9],,,,1/3,,2,,1-5[8:1],,,,
{16}6qq5[32:7]*pp7[32:7],,,,,,,,,,6,,5,,8,,
{16}6bp1[4:1]/2b,,,,1<5[4:1],,,,5q2[4:1],,,,3,,,,
{16}4-1[8:1]*v7[8:1],,,,4<2[32:9],,,,4/2,,3,,4-8[8:1],,,,
{16}1qq8[32:7]*pp2[32:7],,,,,,,,,,1q5[16:3]*p5[16:3],,82,,,,
{16},,,,,,,,,,,,,,,,
