&title=IGNITE
&artist=USAO / Massive New Krew
&first=0.32
&des=In_Cyan / Shengwxnw
&lv_5=14
&inote_5=(200){4},,,,{32}1x,
2x,3x,4x,5x,6x,7x,8x,1x,2x,3x,4x,5x,6x,7x,8x,1x,2x,3x,4x,5x,6x,7x,8x,1x,2x,3x,4x,5x,6x,7x,8x,
{1}5b/1b-3-1v8-6[4:5],
{4},,,5b,
{1}4bh[2:3]/3b-1-3-7-5[4:5],
{4},,,2v4b[8:1]/1-5[8:1],
2b/1b,3h[8:1]/7h[8:1],2h[8:1]/6h[8:1],1h[8:1]/5h[8:1],
4bh[8:1]/8bh[8:1],3h[8:1]/7h[8:1],6h[8:1]/2h[8:1],1h[8:1]/5h[8:1],
{16}8,7,8,7,1,6,1,6,2,5,2,5,3,4,3,4,
,,,,{4}3w7[8:1],{2}A3f,
{1}2q3<6[2:3]`6q7>2b[2:3],
,{32}E5f,
E6/E4,E7/E3/Ch[16:11],E8/E2,{8}E1,,,,,,,{4}2b-4b[8:1]/8b-4b[8:1],
8b/2b<1-5[4:1],2,6,
8-3[8:1],6-1[8:1],2-5[8:1],7-4[8:1],
3-8[8:1],6-1[8:1],{8}4,4,{4}4-1[8:1],
7-2[8:1],3-6[8:1],5-8[8:1],2-7[8:1],
2/6-1[8:1],6/2-5[8:1],2/6-3b[8:1],6/2,
{8}2,{16}6,5,{4}7-5[8:1],1/7x,4/8-4[8:1],
2/8x,3,{16}8x/4x,3/7,2/6,5/1h[16:3],,,,,{4}5-1[8:1],
2>4[8:1],{16}7/2,6,{8}5,{4}8/1,
2b-5[8:1],7b-4[8:1],3b-8[8:1],A6/B6/E6,
6x<4[4:1],6/4,5x>7[4:1],5/7,
5x<3[4:1],5/3,4x>6[4:1],4/6,
{8}5,5,5,5,{16}2,7,2,7,1,8,1,8,
{2}1-5[8:1],{4}1bw5[8:1],1b/Cf/B3/B4/B7/B6,
2,{8}6/4,6/4,{4}6/4-2[8:1],4/5,
1-5[8:1],1/7,{8}2/6-8[8:1],2,{4}6/2,
1-5[8:1],1/3,{16}3,4,{8}2,{16}6,5,{8}7,
{16}1,,,2/8,,,{8}2v5[8:1]/8v5[8:1],,,,,{4}4bx>2b[8:1],
4bx/6bx,8bx<6b[8:1],8bx-4b[8:1],
8bx/3bx>1b[8:1],3bx,{16}6bx,5bx,{8}7bx,{16}3bx,4bx,{8}2bx,
{16}7bx,8bx,{8}6bx,{16}2bx,1bx,{8}3bx,{16}5bx,,,7bx/3bx,,,{8}6bx/4bx,
{1}4qq5[2:1]/5<4[2:1],
{4}4/6h[4:1],{8}2,2V84[4:1],,7,7,6,
{4}5h[4:1],{8}3>8[8:1],4,5,6>3[8:1],7,8,
2-6[8:1],2,8-4[8:1],8,1-5[8:1],1,7,7h[8:3],
,,{4}1b-3-8b[4:1],{8}8b-4b[8:1],6b,{4}7b-5b[8:1],
{1}E7f`7b-5pp4[2:3],
,2<1<8<7<6>5>4>3[4:7],
,7>8>1>2>3<4<5<6[4:7],
,2-6-3-7[4:7],
,5-1-4-8[4:7],
,3qq7qq2[4:7],
,6pp2pp5[4:7],
,2<8-4pp4[4:7],
,8b-2-7-3-6-4[4:7],
{4},,,,E4f/B4/B3,
,,2,
{8}1,,,8,,,{4}7,
{1}6h[2:3]/3p6[4:3],
{4},,,,B6/E6f/B5,
,,7,
{8}8,,,1,,,{4}2,
{1}3h[2:3]/6<3[4:3],
,8/1>8[4:5],
{4},,,5,
{1}4/5<4[4:5],
{4},,,2-5[8:1],
2/6,{8}1/8,2,{4}3/4,7/6-2[8:1],
5-1[8:1],4-8[8:1],{2}3-7[8:1],
{1}5xh[1:1]/Ch[1:1],
{4},1s5b[8:1]`8z4[8:1],{2}Cf,
{8}3b-8[8:1],4,,6b-1[8:1],5,,,4bp1b[8:5]/5bq8b[8:5],
,,,,,,,,2b-5[8:1],
1,,7b-4[8:1],8,,,1bpp4b[8:5]/8bqq5b[8:5],
,,,,,,,,3b-8[8:1],
5,,6b-1[8:1],4,,,2bq5b[8:5]/7bp4b[8:5],
,,,,,,,,2b-5[8:1],
8,,7b-4[8:1],1,,,3bp2b[8:5]/6bq7b[8:5],
,,,,,,,,{4}3xh[4:7],
E1/B1,,B5/E5,
,B7/E7,,E3/B3,
6xh[4:7],E1/B8,,B4/E5,
,E3/B2,,E7/B6,
4xh[4:7],B6/E6,,E8/B8,
,E2/B2,,E4/B4,
{8}5bx/6bx,7bx,,4bx/3bx,,1x-4b[8:1],,1bxq3[8:5]*q3[8:5]`5xq7[8:5],
,,,,,,,,{1}6b/4b-2-4<6-8b[4:5],
{4},,,5b,
{1}4bh[2:3]/3b<5>3-7>1b[4:5],
{4},,,8-6[8:1]/4-8b[8:1],
8b/4b,5h[4:1],{8}2,3,6/4,7,
{4}8b/2,{16}3,4,{8}2,{16}6,5,{8}7,{4}1-5[8:1],
5b/1b,{8}6/4,3,{32}8x,7x,6x,5x,4x,3x,2x,1x,8x,7x,6x,5x,4x,3x,2x,1x,
{2}8w4b[8:1],Cf,
{4}8b/1-3[8:1],1/5-7[8:1],5/8-4[8:1],8/6-2[8:1],
6/1-3[8:1]*-4[8:1],1,{8}6/5,7,{4}8/5-3b[8:1],
5b/6-2[8:1],6/1-7[8:1],1/5-8[8:1],5/1>4[8:1]*-6[8:1],
1-5[8:1],1,{16}7,8,{8}7,{16}3,4,{8}3,
{4}6b-1b[8:1]/5>3[8:1],5-8[8:1],5/2q6[8:1],2/1<7[8:1],
1/4-2[8:1],4,{8}8/5,7,{4}4/6,
{8}5bh[4:1]/1bh[4:1],,,2bh[4:1]/6bh[4:1],,,{4}3bqq4b[2:1]/7bqq8b[2:1],
,,,,7b/5-2[8:1],
5/8-4[8:1],8/3>1[8:1],3/7-4[8:1],
7/2-5[8:1],2/6,{8}7/8,7/8,6/1,6/1,
{4}2b-4[8:1]/5b-1[8:1],5-3[8:1],5/7,1-5[8:1]/7<5[8:1],
7-3[8:1],7/2s6[4:1],2/6,8-5b[8:1],
1b/8b-3[8:1],7b/8b-6b[8:1],{16}8b>3[8:1],2b,,,{4}7b/8b-5b[8:1],
4b/8b-2[8:1],7b/8bw4b[8:1],{2}8b,
7b-2b[8:1]/1b-4b[8:1],5b-8b[8:1]/3b-6b[8:1],
{1}B7/E7/B6/B2/E3/B3/Cfh[2:1],
{4}7xh[4:7],E6,,E5,
,E4,,E3,
2xh[4:3],E1,,E8,
{1}5pp4[2:1]/4>5[2:1],
{24}1bx,8bx,1bx,8bx,1bx,8bx,{4}1bx-3b[8:1],5bx/1bx-5b[8:1],6bx/1bx-3b[8:1],
5bx/1bx-7b[8:1],1bx/4bx,{16}6bx,5bx,{8}7bx,{4}8bx,
{16}2bx,2bx,{8}4bxh[8:1],{16}7bx,7bx,{8}5bxh[8:1],{16}3bx-5b[8:1],,,8bx,,,{8}8bx,
{4}7-1-5b[4:1],5-8[8:1],{24},,,,,,,,,,,,4x,
5x,4x,5x,4x,5x,{4}4bx,5x-7[8:1],B4/E4/B3,
6-8[8:1],B3/E4/B4,7-5[8:1],B3/E4/B4,
{16}4xh[8:1]/3bxh[8:1],,,5xh[8:1]/2bxh[8:1],,,{8}1bx/6x,{16}7x-5[8:1],8x,7x,8x,{4}7x,
D4/E4/A4/A3,A2/E2/D2/A1,A8/D8/A7/E8,A6/D6/A5/E6,
{8}3/4,2,6/5,7,{2}1-5[8:1],
{8}4/6,4/6,3/7,7/3,{2}8h[4:1]/2h[4:1],
5bq1[8:1]/3bv8[8:1],4bp8[8:1]/6bv1[8:1],
{1}2b-5>1[2:1]/7b-4<8[2:1],
{32}1b/8b,2b/7b,3b/6b,4b/5b,
E
