&title=YKWTD
&artist=r-906
&first=0
&des=YYlY
&clock_count=4
&lv_5=14
&inote_5=(174)
{1},,
{32}1b/8b-5q2[4:6]b,2x/7x,3x/6x,4x/5x,
{4},,,,,,,
{8},6,,6,,E6,E5,E4,,2,2,4,4-8[8:1],,
E2,E3,,
3,,3,,E4,E5,E6,,8,8,6,6-3[8:1]b,,
E8,E7,,
6,,6,,E6,E5,E4,,1,1,3,3-6[8:1]b,,
E2,E3,,
{8}1bqq4[4:6]b/6,,6,,5,5,5,,6,6,5,5,,6,6,,
7qq4[4:6]/2,,2,,3,3,3,,2,2,1,1,,2,2,,
1>1[4:6]b/8,,8,,7,7,6,,7,7,3,3,,2,2,,
6qq8[4:6]b,,,,,,,,,,,,,,,,
{8}6,3h[4:1]/4,,6,5-1[8:1]/7,,8,,6,3h[4:1]/5,,6,5-2[8:1]/7,,8,,6,3/5,4,6,5-1[8:1]/7-4[8:1],8,C,,
{8}2>5[8:1],5>2[8:1]*p1[8:1],2,,,8,1/8,,
{8}3,6h[4:1]/5,,3,4-8[8:1]/2,,1,,3,6h[4:1]/4,,3,4-7[8:1]/2,,1,,3,6/4,5,3,4-8[8:1]/2-5[8:1],1,C,,
{8}7<4[8:1],4<7[8:1]*q8[8:1],7,,,2,3/4,,
{8}6/E5,,6/E3,,5,4/6h[4:1],,4,3/5-1[8:1],2V48[4:1],5,2,,E7/E6/B6,E7/E6/B6,,
{8}3/E5,,3/E7,,4,5/3h[4:1],,5,6/4-8[8:1],7V51[4:1],4,7,,E3/E4/B3,E3/E4/B3,,
{8}5/6,7,1/8,2,3/4,2,1/8,7,
4/6,8/3,2/5,1/7,4/5,2/8,3/4,1/6,
{4}Ch[8:5],,,
{8},E2,E8,E3,E7,E5,,4xb/5xb,1b/8b,,
{8}7-4[8:1]/3-8[8:1],,7b/3b,,2>5[8:1],5p1[8:1],2,,8-4[8:1],6-1[8:1],8,6,,3,5,4,7<5[8:1],5,7,3,8p4[8:1],4,8,2,1V75[8:1]/3,,4,3-7[8:1],,2,2,,1-5[8:1],,6b-2[8:1]/1b,,8V24[8:1]/6,,7/8,,5-1[8:1],4V26[16:3],5,4,,7,5,6,3V15[16:3],5,6,7,8V26[16:3],1,2,3,4-1-5[16:3],5,6,7<3[8:1]*p3[8:1],,7b,,,
{8}2-5[8:1]b/6v1[8:1]b,,2/6,,7v4[8:1],4V68[8:1],7,,1-5[8:1],3v8[8:1],1,3,,6,4,5,2>4[8:1],4,2,6,1q5[8:1],5,1,7,8V24[8:1]/6,,5,6-2[8:1],,7,7,,8-4[8:1]b,,3q7[8:1]/8,,1V75[8:1]/3,,2/1,,4-8[8:1],5V73[16:3],4,5,,2,4,3,6,6h[4:1],5,4,3,3h[4:1],4,5,6v4[8:1],4q8[8:1],6,1>5[8:1]*q5[8:1],,1b,,,
{8}7-3[8:1]b,8,3/7b,,2-5[8:1],1,8p4[8:1],7,3,2-7[8:1],,6V85-1[8:3],,1,2,,4-7[8:1],3,2/4,,1v2-4[4:1],5,6,,8-5[8:1],5V73[16:3]/6,8,4,,2,2,,
{8}1-5[8:1]b,8,6/1b,,7v4[8:1],8,1q5[8:1],2,6,7>2[8:1],,3>1-4-8[8:3],,8,7,,
6,6h[8:1],4,5,3,3h[8:1],5,4,7,7>6[4:2]b,,Cf,,,,,
{1}4bw8[4:14]b,,,,Ch[4:15],,,,8>8[4:15]*>8<8b[4:30],,,,Ch[4:15]f,,,,
{8}3b/6b,4,5,4,6h[4:1],,5,7h[4:1],,E8,,E1,,E2,,E3,
{8}6/3,5,4,5,3h[4:1],,4,2h[4:1],,E2,,E1,,E8,,E7,
{8}3/6,4,5,4,6h[4:1],,5,7h[4:1],,A8,,A1,,A2,,A3,
{4}5h[8:5],,,
{8},3/6xh[8:5],4,3,2,3,,3b/6b,1b/8b,,
{16}3/7-3[8:1],,8,,3/7,,2,2,4-8[8:1],,1-5[8:1]/6,,4,,1,,
6>3[8:1],,7,,6/2,,1,1,7-4[8:1],,4-8[8:1]/6,,7,,3,,
1>4[8:1],,2,,1/8,,7,7,5-1[8:1],,8-4[8:1]/3,,5,,8,,
2-5[8:1],,3,,2/6,,8,8,3-6[8:1],,6-2[8:1]/4,,3,,7,,
{16}8-5[8:1],,1,,2/8,,3,3,4-8[8:1],,1-5[8:1]/6,,4,,1,,
7>2[8:1],,6,,7/3,,4,4,6-3[8:1],,3-7[8:1]/7,,6,,2,,
1-4[8:1],,8,,1/6,,7,7,5-1[8:1],,8-4[8:1]/3,,5,,8,,
3-8[8:1]b,,2,,3/7-3[8:1]b,,6,,1-5[8:1]b/7,,2,,1b/6b,,,,
{16}6/2-6[8:1],,3,,6/2,,7,7,5p1[8:1],,8p4[8:1]/3,,5,,8,,
2-5[8:1],,3,,2/7,,6,6,4-8[8:1],,8V24[8:1]/2,,4,,6,,
7-3[8:1],,6,,7/3,,2,2,4q8[8:1],,1q5[8:1]/6,,4,,1,,
6>3[8:1],,7,,6/2,,1,1,8-4[8:1],,4V68[8:1]/6,,8,,2,,
{16}3-7[8:1],,4,,7/3,,6,6,5p1[8:1],,8p4[8:1]/3,,5,,8,,
2<7[8:1],,3,,2/5,,6,6,4-8[8:1],,8V24[8:1]/2,,4,,7,,
{16}6<1[8:1],,6,,5,,4h[16:1],,3<6[8:1],,3,,2,,1,,
{16}8>3[8:1],,8,,7,,6h[16:1],,5<8[8:1],,5,,4,,3,,
{16}8x<5[8:1]/2xv5[8:1],,,,2/8,,,,3/4,,2,1,2-8[8:1],,7-3[8:1],,2>5[8:1],,7V51[16:3],,2,,7,,,,2,,3/8,,,,
{16}4/7,,6,5,7,,4/8,,5/2,,3,4,2,,6/1,,2>5[8:1],,5<8[8:1]*q1[8:1],,2,,,,,,2,,3/4,,,,
{16}7/3,,1,8,2,,3/7,,4/5,,6,5,7-1[8:1],,2-6[8:1],,7<4[8:1],,2V48[16:3],,7,,2,,,,7,,6/1,,,,
{16}2/5,,3,4,3,,2/5,,7/4,,6,5,6,,4/7,,2-6[8:1]/6,,4/8-4[8:1],,2,,8,,,,3/5,,2-7[8:1]b/6-3[8:1]b,,,,2b/6b/Cf,,,,,,,,,,,,,,,,
E
