&title=Bright Burning Shout
&artist=西川貴教
&first=0.04
&des=LTCalter
&clock_count=4
&lv_5=13+
&inote_5=(180)
{1},,
{4}4xpp6b[8:20]*qq2b[8:20],,,,,,,,,,,,5w1[8:4],,,,
{8}3h[8:2],,5,4,7,6h[8:2]/5,,4h[8:2],
,7,5/6h[8:2],,1,,7,3,
6h[8:2],,4,5,1,2h[8:2]/4,,5h[8:2],
,1,4/2h[8:2],,8,6,4z8[8:4],2-6[8:3],
,,,,,,E8f/2b,,
6h[8:2]/4,,5,,7,4-2[8:1],,6-4[8:1],
,1-5[8:1],,5-7[8:1]*-3[8:1],,,,2h[8:2],
,5,4,6,3/7,8-6[8:1],,4-8[8:1],
,5-1[8:1],,1-7[8:1]*-3[8:1],,,,3h[8:5],
,5,5,,C,,75,6h[8:3],,4,4,,3/5h[8:2],,2>7[8:3],1/8q1[8:2],
,,,,3,28,1,8,
{16}17,,6-2[8:1],5,6,,1-4[8:1],,,,{48}1bx,E1,C,E5,,,,,,,,,{16}2bxh[8:2],,
,,5,,3,,4,,6,,7-1[8:1],,,,2-5[8:1],,,,6-1[8:1],,,,4-1[8:1],,,,8,,,,7h[8:2],,
,,4,,6,,5,,3,,2-4[8:1],,,,6-1[8:1],,,,5-3[8:1],,,,8-5[8:1],,,,2-5[8:1]*-6[8:1],,,,2b<4[8:3],,
,,3,,3,,,,1,,1,,8,,7>4[8:3],,,,6,,6,,,,8-4[8:1],,,,8/4,,2V86[8:2]*V46[8:2],,
,,,,,,,,2,,3,,4,,5b/7b,,,,8,,2,,3,4,3,,26,,7/1-6[8:1],,,,
1bpp4[8:4],,,,,,7,,7,,,,8h[8:2],,,,
5,,5^2[8:2],,,,6,,6,,,,7^4[8:1],,,,
7qq2[8:4]/1,,,,,,2,,2,,,,3h[8:2],,,,
1,,1^6[8:2],,,,4,,4,,,,3,,1/5h[8:2],,
,,7,,8-4[8:1],,1,,2/8b,,,,3,,1/5h[8:2],,
,,7,,8p4[8:1]*p4[8:1],,1,,2/8b,,,,3,,1/5h[8:2],,
,,7,,8<4b[8:1],,1,,2/8b,,,,3,,3,,
2h[8:1],,1h[8:1],,8h[8:1],,7h[8:1],,3x,4x,5x,6x,7x,8x,1x,2x,
3x-6[8:1]/7x-2[8:1],,,,{48}7b/3b,E7,Cf,{16}E3,,,8,,8-4[8:1],,1,,2^5[8:1]/8b,,
,,6-1[8:1],,,,6b/4,,,,5,,4-7[8:1],,3,,2/4b,,2-5[8:1],,,,2bV48[8:2]/8,,,,6,,6-3[8:1],,,,
6b/1,,,,8,,8,,1,4,2,5,3,6,4,,
7x/5x,,6,,24,,3,,56,,7,,34,,2,,
87,,6,,12,,3,,71,,5,,82,,4,,
56,,56,,34,,34,,68,,71,,28,,3b/1bs5[16:3],,,,3x,,3xw7b[16:4],,,,,,,,,,,,
7b^4[8:1]/1b,,,,7,,{24}1x,8x,7x,6x,,,8x^3[8:1],7x,6x,5x,,,5x,6x,7x,
{16}8x-4b[8:1],,,,,,3^6[8:1],,,,2,,1,,8,,
1b^4[8:1]/7b,,,,1,,{24}6x,7x,8x,1x,,,7x^4[8:1],8x,1x,2x,,,8x,1x,2x,
{16}3xh[8:2],,,,1b-5[8:1],,,,7bw3[8:1]/1b,,,,7b,,,,
1b/5b,,2,4,3,,1bh[8:2]/7b,,,,6,4,5,,2b/8bh[8:2],,
,,3,4,3,,2bh[8:2]/5b,,,,8,,8,,1/7-4[8:1],,
,,3-8[8:1],,2,,6-3[8:1],,7,,1-5[8:1],,,,1b/5bw1[8:1],,,,Cf,,,,
3,6,4,5,3,6,4,5,2,7,
1b^4[8:1],,,,1,,{24}8x,7x,6x,5x,,,8x^3[8:1],7x,6x,5x,,,5x,6x,7x,
{16}8xp4b[8:1],,,,,,3qq1[16:3],,,,4,,5,,6,,
7b^2[8:1],,,,7,,{24}3x,4x,5x,6x,,,3x^8[8:1],4x,5x,6x,,,8x,7x,6x,
5xqq8[8:3],4x,3x,2x>7[8:2],1x,8x,{16},,,,,,,,2,8,2,8,
1-5[8:1],,1,,7-4[8:1],,7,,3,,2-5[8:1],,1,,8/2bpp6[8:3],,
,,,,7,,8^5[8:1],,,,4,,,,3,4,
2-6[8:1],,1,,8-5[8:1],,7,,2-4[8:1],,1,,7-4[8:1],,6,,
1-4[8:1],,8,,6,,6h[8:1],,{12}3x,4x,2x,7x,5x,6x,
{16}3>6[8:3],,,,,,5,,5,,,,4V61[8:3],,,,
1,,,,2,,3-8-4[8:3],,,,7h[8:2],,,,,,
6<4[8:3],,,,,,,,5<4b[8:4],,,,,,E1f/A8/A1/D1/B8/B1,,
,,,,,,,,3,,5,,7,,1,1,
4-7[8:1],,4,,2-5[8:1],,2,,
1^6[8:1],,,,3V52[8:2]/1,,,,
5,,,,6,,7^4[8:1],,,,7/1>6p8b[8:7],,,,A1f/7bh[8:8],,
,,,,,,,,,,,,,,,,2h[8:1]/4h[8:1],,,3h[8:1]/5h[8:1],,,4x/6x,,5x-1b[8:1]/7x,
,,,4bqq7[1:2],,8bxqq3b[8:15],,
