&title=Mario先进国
&artist=我是wmc
&first=0
&lv_5=13
&des_5=我是wmc
&inote_5=
(125){32},{16},{32}7b,{16},{32}1,8,{16}1,2b,{32},8,1,8,,,,1/7,{16},8/2,{32},1/7,{16},{64}7b/2b,{32},{64}2b,{32},7b/2b,
{16},,,{64}6b/3b,{32},{64}6b,{32},6b/3b,,,,,,5b/4b,{64},5b/4b,{32},{16}5b/4b,,5h[8:1],1,1,8h[8:1],4,
4,6bh[8:1],2b,2b,3bh[8:1],7b,{32}7b,{16},{32}6b/1b,{64},1b,{32},{16}6b/1b,{8},{64}8b/3b,{32},{64}3b,{32},3b/8b,{16},,,6b/3b,
{32},8,1,2,3bh[32:5],{16},{32}4,,4,,4h[32:5],,5,{64},5,{32},5b,{16},{32}6,{64},6,{32},{16}6b,{32},,,,,7h[64:11],
{64},,,6,{32},6,{64},6,{96},,,,,,,{24}5b,4b,3h[4:1],{96},,,,,,,,,,,{32}2,{64},2,{32},{8}2,{12},{48}5h[96:19],{12},{48}1,{192},,,,,{64}1,
{32},1,{16},{32}1b,{16},{32}8h[96:19],{64},,,,,4,{32},{64}4,{32},{64}4,,,,,,4b,{32},,,{8}6h[24:5],{64}2,{32},{64}2,{32},2,{16},2b,
{32},3h[32:7],,,,7,{64},7,{32},7,{8},{32}1/8-4[0.42##0.18],{16},7,7,{32}8/1-5[0.42##0.18],{16},{32}2,,2,,8/1,{16},8b,
{32},8/1,{16},{32}1b,{16},{32}7b/8b,,1b,,7b/2b,{8},{16}2b/1b,8b,{8}7b/2b,{32},6b/5b,,4b,,6b/3b,{16},{32}4/5-1[0.42##0.18],
{16},{32}3,,3,,5/4-8[0.42##0.18],{16},6,6,5/4,{32},5b,{16},{32}5/4,{16},{32}4b/6,,6b/5b,,4b,,6b/3b,{8},{16}4b/3b,
2b,4b/1b,{32},,,6b/3b,,,,1,8,7,{16}6bh[32:7],,{64}5,{32},{64}5,{32},5h[32:7],,,,4,{64},4,{32},{16}4,
3b,{32},2b/1b,{16},{8}8b/7b,3h[32:7],{64}4,{32},{64}4,{32},4h[32:7],,,,5,{64},5,{32},{16}5,{32},6b,{16},{7}7b/8b,
{21}7b,8,7,8,6b,8,7,8,5b,8,7,8,4b,8,7,8,{336}4b,{168},,,,,{336}3x,{672},,,,,,,,,,,,,,,,,,,{32}2x,
1x,8x,7x,6x,5x,4,3,2,1,8,7,6,{64},6,7,8,1,2,3,4,5,6,7,8,1,2,3,4,5b,6b,7b,8b,1b,2b,3b,4b,{32},7b,,,,1b,{16},{64}2,
{32},{64}2,{32},3,{64},2,{32},{64}3,{32},{64}3,{32},2,{64},3,{32},{64}2,{32},{64}3,{32},2,{64},8b,{32},{64}1b,{32},{64}8b,{32},1b,{64},,,,,,,4b,{32},5b,{64},4b,{32},{16}5b,
,{64}2b/7b,{32},{64}7b/2b,{32},7b/2b,{64},7b/2b,{32},{64}6,{32},{64}6,{32},7,{64},6,{32},{64}7,{32},{64}7,{32},6,{64},7,{32},{64}6,{32},{64}7,{32},6,{64},7,{32},{64}7,{32},{64}6,{32},7,{64},6,,,,,,7b/1b,
,,,,,7b/3b,{32},,,,,,,3b/7b,{16},{32}3b/5b,{64},,,,,,,5b/4b,,,,5b/4b,,,,6b/3b,,,,,,,,4b,{32},3b,{64},2b,{32},{64}1,
{32},{64}8,{32},1,{64},1,{32},{64}8,{32},{64}8,{32},1,{64},8,{32},{64}8,{32},{64}1,{32},8b,{64},7b,{32},{64}6b,{32},{64}4b,{32},4,{64},5,{32},{64}4,{32},{64}4,{32},5,{64},4,{32},{64}5,{32},{64}5,
{32},4,{64},5,{32},{64}4,{32},{64}5b,,,,,,,,7b,,,,,,,,4,{32},4,{64},5,{32},{64}5,{32},{64}4,{32},4,{64},5,{32},{64}5,{32},{64}3,{32},6,{64},2,{32},{64}7,{32},{64}1,
{32},8,{64},1,{32},{64}7,{32},{64}2,{32},7,{64},3,{32},{64}6,{32},{64}4,{32},5,{64},4,{32},{64}5b,{32},{64}4b,{32},5b,,,,1b,{64},1b,{32},{16}1b,{8},{64}7b,
{32},,,{64}1,{32},1,{64},1,{32},,,{16}4b,{32},6,{64},6,{32},{64}6,{32},,,{64}8b/2b,{32},,,5b/3b,{16},{64}7,{32},{64}3,{32},6,{64},2,{32},{64}5b,
{32},,,{64}1,{32},4,{64},8,{32},{64}3,{32},{64}7b,,,,,,1b,{32},{64}1b,{32},{64}1b,{32},1b,{64},,,,,,,4,{32},3,{64},5b,,,,,,5b,{8},{64}8,
{32},{64}1,,,,,,1,{32},{64}2,{32},{64}3,,,,,,3,{32},{64}4,{32},{64}5,{32},6,{64},7,{32},{64}8,1,2,3,4,5,6,7,8,1b,{16},{32}2b,{64},2b,{32},{64}2b,{32},{64}2b,{32},2b,
{16},{64}8,7,6,5,{32},,,4,{64},5,{32},{64}4,{32},{64}4,{32},5,{64},4,{32},{64}5,{32},{64}5,{32},6,{64},4,{32},{64}6,{32},{64}4,{32},5,{64},3,{32},{64}5,{32},{64}3,{32},6,
{64},5,{32},{64}4,{32},{64}3,{32},6,{64},5,{32},{64}4,{32},{64}3,{32},6,{64},6,{32},{64}5,{32},{64}5,{32},4,{64},4,{32},{64}3,{32},{64}3,{32},6,{64},6,{32},{64}6,{32},{64}6,{32},5,{64},5,{32},{64}5,
{32},{64}5,{32},4,{64},4,{32},{64}4,{32},{64}4,{32},3,{64},3,{32},{64}3,{32},{64}3,,,,,,8b/4b,{32},{64}7b/3b,{32},{64}6b/2b,{32},5b/1b,{64},,,,,,,1b/5b,{32},2b/6b,{64},3b/7b,{32},{16}4b/8b,
{64},,,,,2b,{32},{64}6b/2b,{32},{64}7b/3b,{8},{64}8,{32},{64}2,{32},1,{64},3,{32},{64}2,{32},{64}4,{32},3,{64},5,{32},{64}4,{32},{64}6,{32},5,{64},7,{32},{64}6,{32},{64}8,{32},7,
{64},1,{32},{64}2b,{32},{64}2b,{32},2b,{64},2b,{32},{64}2b,{32},{64}2b,{32},2b,{64},2b,,,,,,8b,7,6,{32}5,{64},,,,,,,6b,5,4,{32}3,{8},{64}8,{32},{64}5,{32},7,
{64},6,{32},{64}5,{32},{64}4,{32},6,{64},3,{32},{64}4,{32},{64}1,{32},2,{64},3,{32},{64}7,{32},{64}8,{32},1,{64},2,{32},{64}3b,{32},{64}6b,{32},7b,{64},8b,{32},{64}7b,{32},{64}6b,{32},7b,{64},8b,{32},{64}7b,
{32},{64}6b,{32},7b,{64},8b,{32},{64}7b,{32},{64}6b,{32},7b,{64},,,,,,,,,,,6b,{32},8b,{64},8b,{32},{64}7b,{32},{64}1b,{32},6b,{64},1b,{32},{64}1b,{32},{64}5,{32},2,{64},4,{32},3,
{16},,,{32}4b,{64},2b,{32},{64}3b,{32},{64}3b,{32},5b,{64},4b,{32},{64}4b,{32},{64}2b,{32},3,{64},5,{32},{64}3,{32},{64}3,{32},3,{64},5,{32},{8}3,
{64},,,7,{32},4,{64},2,{32},{64}5,{32},{64}3b,,,,,,,,,,,,,,6,{32},{64}2,{32},{64}8,{32},3,{64},1b,{16},,,{32}1,{64},2,{32},{64}8,{32},{64}3,
{32},7,{64},4,{32},{64}6,{32},{64}5,{32},4b/3b,5b/2b,{8},{32}6b/1b,{16}7b/8b,{64},,,,,,,5b,{32},4,{64},6,{32},{64}3,{32},{64}7,{32},2,{64},8,{32},{64}1,{32},{64}8,
{32},1,{64},7,{32},{64}2,{32},{64}6,{32},3,{64},5,{32},{64}4,{32},{64}6b,{32},1b,{64},4b,{32},{64}8b,{32},{64}3b,{32},7b,{64},2b,{32},{64}5b,{32},{64}5,{32},5,{64},1,{32},{64}1,{32},{64}3,{32},3,
{64},7,{32},{64}7,{32},{64}8,{32},7,{64},8,{32},{64}8,{32},{64}7,{32},8,{64},7,{32},{64}7,{32},{64}8,{32},7,{64},8,{32},{64}7,{32},{64}7,{32},8,{64},7,{32},{64}8,{32},{64}8,{32},7,{64},8,{32},{64}3,
{32},{64}4,{32},3,{64},3,{32},{64}4,{32},{64}3,{32},4,{64},4,{32},{64}3,{32},{64}4,{32},3,{64},4,{32},{64}4,{32},{64}3,{32},4,{64},3,{32},{64}1,{32},{64}2,{32},2,{64},8,{32},{64}8,{32},{64}1,
{32},8,{64},2,{32},{64}1,{32},{64}2,{32},8,{64},1,{32},{64}2,{32},{64}7b,,,,,,6b,{32},,,5,4,5,4,5,4,5,4,5,4,{64},3b,{16},{32}2b,
{64},,,1b,{16},,,8b,1,8,1,8,1,8,1,8,{32}1,8,1,8,1,8,
1,8,1,8,1,8,1,{64}8x,1x,8x,1x,8x,1x,8x,1x,8x,1x,8x,1x,8x,1x,8x,1x,2x,3x,4x,5x,6x,7x,8x,1x,,,,5bx/1bx,{32},,,{64}6b/2b,7b/3b,{32}8b/4b,
E
