&title=Dynasty
&artist=Yooh
&first=-0.45
&des=Luna
&lv_1=1
&lv_5=14
&inote_5=(189)
(189)
{16}
,,,,,,
,,,,,,8,1,7,2,
3h[1:1]/6b,,,,,,6,,,,,,7,,,,,,8/5>8[8:3]*-8[8:3],,,,,,,,,,,,,,
6h[1:1]/3,,,,,,2,,,,,,1,,,,,,8/4v7[8:3]*v1[8:3],,,,,,,,,,,,,,
3h[1:1]/8,,,,,,6,,,,,,7,,,,,,7V51[8:3]/3V15[8:3],,,,,,,,,,,,,,
6h[1:1]/1,,,,,,3,,,,,,2,,,,,,5/1q4[8:3]*p6[8:3],,,,,,,,,,,,,,
3b/7b,,,,4,,7,,4,,,,27,,,,
1,,6,,1s5[4:1],,,,1,,,,7,,,,
2,,,,5,,2,,5,,,,27,,,,
8,,3,,7-1[8:1],,,,7/8-4[8:1],,,,8,,,,
7,3,8,,28,,8,3,7,,27,,2,5,1,,
16,,1,6,2,,53,,4,6,4,6,3,7,3,7,
2,8,2,8,1,8,1,8,
{32}
1,2,3,4,5,6,7,8,1,2,3,4,5,6,7,8,
{8}
1b/5bv8[4:3]*v2[4:3],,,,,,,,,,,,
6h[4:3],,4,,3,,1,,17,,26,,
3h[4:3],,5,,6,,8,,82,,37,,
6h[4:2],,4,,3>7[4:2],,7,,6,,5,,
3h[4:2],,5,,6<2[4:2],,2,,3,,4,,
{16}
7,6,5>1[8:3],,6,,6,,7,,7,,8h[4:1],,,,1,,,,17,,,,
2,3,4<8[8:3],,3,,3,,2,,2,,1h[4:1],,,,8h[4:1],,,,2,,,,
7/1-4[8:1],,,,1-5[8:1]*-6[8:1],,,,1,,,,2/8-5[8:1],,,,8-4[8:1]*-3[8:1],,,,8,,,,
61,,6,,27,,2,,83,,8,,
2,6,2,6,1,5,1,5,
8-4[8:1],4,8,4,
8b,,7-3[8:1],,2,,7,,1-4[8:1],,6,,1-6[8:1],,,,1-5[8:1]/1-5[8:1],,,,1,,,,
7,,2-6[8:1],,7,,2,,8-5[8:1],,3,,8-3[8:1],,,,8-4[8:1]/8-4[8:1],,,,8,,,,
2,,7-3[8:1],,2,,7,,1>3[8:1],,6,,1-4[8:1],,,,1-5[8:1]/1-5[8:1],,,,1,,,,
7,,2-6[8:1],,7,,2,,8<6[8:1],,3,,8-5[8:1],,,,8-4[8:1]/8-4[8:1],,,,8,,,,
1b/5b,,7p3[8:1],,2,,7,,1-4[8:1],,6,,1-6[8:1],,,,1w5[8:1]/3,,,,1,,,,
8,,2q6[8:1],,7,,2,,8-5[8:1],,3,,8-3[8:1],,,,8w4[8:1]/6,,,,8,,,,
17,,7,,27,,2,,26,,6,,36,,3,,37,,7,,27,,2,,
1,8,2,7,3,6,4>1[8:1],5,4h[8:1],,
{24}
1,8,7,6b
,,,,,,
{16}
18,,7,,26
,,3,,
{8}
8b<8[4:3]/4b,,5,,3V16[4:2],,,,,,4-8[8:1],,
4>4[4:3]/8,,1,,7V52[4:2],,,,,,8-4[8:1],,
8/4<8[4:2],,2h[32:1],,8-4[4:1],,2>4[8:1],,2p6[8:1],,
2/5-1[8:1],,
5/1<5[4:2],,3h[32:1],,5-1[4:1],,3>1[8:1],,3q7[8:1],,
8-5[8:1]/3,,8b-3[8:1]/2,,8<6[8:1]/6,,8>2[8:1]/1,,87,,
8,6,1>3[8:1],8,1b-4[8:1]/7,,1-5[8:1]/6,,1<7[8:1]/6,,1-6[8:1]/3,,1-5[8:1]/3,,12,3,
4b/6,4,47,4,48,4,8b/1,8,82,8,83,8,
{16}
2,1,2,1,3,8,3,8,4-8[8:1],7,4,7,4b-2[8:1]*-6[8:1],,,,4bw8[16:3],,,,4b,,,,,,,,
4,6,3,7,
2,8,2h[4:1],,7,,8,,1-7[8:1],,6,,1-3[8:1],,4,,1-5[8:1],,6,,1,,8,,
7,1,7h[4:1],,2,,3,,8-2[8:1],,3,,8-6[8:1],,5,,8-4[8:1],,3,,8,,1,,
8,7,8,7,8,1,2,3,4,5,6,7,48,5,6,7,8,1,2,3,4,53,62,71,
8,7,6,,53,,5,,6/2-5[8:1]*-5[8:1],,2,,2-7[8:1]*-7[8:1],,,,2w6[8:1],,,,2b,,,,
8,3,1h[8:1],,2,,3,,8-4[8:1],,7,,7-5[8:1],,6,,7-3[8:1],,8,,7,,2,,
1,6,8h[8:1],,7,,6,,1-5[8:1],,2,,2-4[8:1],,3,,2-6[8:1],,1,,2,,8,,
5,7,5,7,4,8,3,1,2,8,1,7,
{24}
8,1,2,3,4,5,
{16}
61,2,3,4,5,64,37,82,1-5[8:1],,1,,7-3[8:1],,7,,3,2,1,,
8b/4b,,,,1b/5b,,5,,2b/6b,,6,,
1,2,3,,84,,8,,7/3-6[8:1],,3,,3/7-2[8:1],,7,,7/1-5[8:1],,1,,17,,8,,
8,7,6,,15,,2,3,4/6-3[8:1],,6,,6/2-7[8:1],1,8,,2/4-8[8:1],5,6,,4,,6,,
7,5,7,5,8,6,1,7,2,8,
{24}
1,2,3,
{16}
4,5,6,7,8,5,6,7,
{24}
81,2,3,4,7,6,5,8,1,2,3,4,
{16}
51,8,7,6,5,2,4,3,5,4,5,4,6-2[8:1],5,7,6,,,,,
1,3,2,,84,,84,,3-7[8:1]/7,,3/7,,3/8-4[8:1],,,,8/4<8[8:1],,,,1,,3,,
5,7,6,,84,,84,,1-5[8:1]/5,,1/5,,1/4-8[8:1],,,,4/8>4[8:1],,,,
5,6,7,8,1-5[8:1]*-6[8:1],,,,1-4[8:1],,,,
1/8-5[8:1]*-5[8:1],,,,8-3[8:1]*-3[8:1],,,,8-4[8:1],,,,8,,,,
3,1,3,1,4,8,3,7,2,6,1,5,2,6,
{24}
3,2,1,8,,,6,7,8,1,,,18,27,36,
{16}
5b/4b-8[8:1],,,,4/8-4[8:1],,,,6-2[8:1],,,,6b/2b-6[8:1],,,,3,,,,1-4[8:1]*-6[8:1],,,,
1b,,,,3,4,2,,15,,26,,4,5,3,,
{24}
2,6,2,6,,,
{16}
34,,54,,6,5,7,5,48,,37,,26,,3,5,1,,
{24}
2,3,4,5,,,1,8,7,
{16}
6,,1,28,3b/7b,,,,
2,1,2,1,
{24}
2,3,4,1,8,7,6b/2b,,,,,,
{16}
7,8,7,8,
{24}
7,6,5,8,1,2,3b/7b,,,,,,
{16}
4,5,3,6,2,7,1,8,
{24}
2b,3,4,5,6,7,8/4b,3,2,1,8,7,
6<1[8:1]/1bq3[4:10],2,3,4,5q7[6:14],6b,
{16}
,,,,,,,,,,,,,,,,,,,,,,,,,,,,,,,,,,,,,,,,,,,,,,,,
7b-4[4:8]/2b-5[4:8],
,,,,,,,,,,,,,,,,,,,,,,,,,,,,,,,,,,,,,,,,,,,,,,,,,,,,,,,,,,,,,,,
E
