&title=ワンダードライブ
&artist=ORESAMA
&first=0.04
&des=LTCalter
&clock_count=4
&lv_5=13
&inote_5=(160)
{1},
{8},,,,,,2V85[8:6],6V41[8:5],,,,,,,,,
3q6[8:4],,,,,,,,
7h[8:2]/5h[8:2],,,1h[8:2]/2,,3p8[8:5],7qq4[8:4],,,,,,,,2b/6b,,
{16}7h[16:3],,,5,6,,54,,3,,2,,1h[8:2],,,,
4-7[8:1],,,,1,,,,3-8[8:1],,,,7,,,,
6h[16:3],,,8,7,,81,,2,,3,,4h[8:2],,,,
1-6[8:1],,,,4,,,,2-7[8:1]*-5[8:1],,,,,,,,
2h[16:3],,,4,3,,45,,6,,7,,8h[8:2],,,,
5^2[8:1],,,,8,,,,7,,7,,6<4[8:5],,,,
1b,,,,,,,,,,,,,,3,5,
4w8[8:2],,,,,,,,,,2b/6b,,,,,,
5/3h[8:2],,,,,,6h[8:10]/4,,,,,,,,5,,
,,5,,,,5,,,,4,,4^1[8:1],,,,
7h[8:2],,,,,,8/2h[8:7],,,,,,4,,,,4,,,,4,,,,5h[8:1]/3h[8:1],,,,6h[8:1]/4h[8:1],,,,
5/7h[8:2],,,,,,7h[8:7]/1,,,,,,8,,,,8,,,,8,,,,78,,,,12,,,,
4/2h[8:2],,,,,,3h[8:2]/5,,,,,,46,,,,
5h[8:1],6h[8:1],,,2h[8:1],4h[8:1],,,5h[8:1],6h[8:1],,,2,4,2,4,
1-5[8:1],,,,5,,7-2[8:1],,,,3h[8:2],,,,1^6[8:1],,
,,4^1[8:1],,,,6pp3[8:3],,,,,,,,2,,1^4[16:2],,,,6,,7qq2[8:3],,,,3,,3qq6[8:4],,,,
,,,,,,,,8,,,,7,,,,
46,,2v4[8:1],,,,5,,6,,7<1[8:3],,,,4h[16:6],,
,,,,,,,,2h[8:1]/8h[8:1],,,,1h[8:1]/7h[8:1],,,,
6,,7,,1,,2,,3V51[8:3],,4V68[8:2],,,,,,,,,,2,,2w6[16:3],,,,,,,,,,
3-1[8:1],,,,8,,8,,1-4[8:1],,7,,7,,,,
5-1[8:1],,,,6,,6,,1-4[8:1],,5,,5,,,,
7v4[8:1],,,,3,,1>5[8:2],,,,5<5[8:4],,,,1bV35[8:2],,,,,,,,,,7,,,,1b/8b,,,,
3^8[8:1]/8^5[8:1],,,,3pp4[16:3]/8,,,,,,,,7,,8V64[16:3],,
,,4,,3-7[8:1],,2-6[8:1],,,,,,,,,,
6^1[8:1]/1^4[8:1],,,,6qq5[16:3]/1,,,,,,,,2,,1>5[16:3],,
,,5,,6^4[8:1],,7p3[8:1],,8p2[8:1],,,,,,,,
1b,,,,3qq5[8:3],,4,,5,,,,7,,8<4[8:2],,
,,4q1[16:3],,,,1,,,,2,,3>6[8:2],,,,8,,,,5,,5pp1[8:3],,
,,1,,2,,3qq5[16:5],,,,8,,7,,6h[8:2],,,,4,,3,7,2,8,
1-5[8:1],,,,1^4[8:1]/6^1[8:1],,,,,,,,5,,1V74[8:2],,
,,3,,2v5[8:1],,1^6[8:1],,,,,,,,4,,
5^8[8:1]/3^8[8:1],,,,3qq4[16:5]/5,,,,7,,6,,5,,5pp4[16:5],,,,
1,,2,,3h[8:2],,,,5,,2-6[8:1]/6,,,,
8b^5[8:1],,,,4,,3,,2,,1,,78,,1/6^1[8:1],,
,,2pp3[16:3]/6,,,,1<4[8:2],,,,2,,2^7[8:1],,,,
2,,4>7[16:3],,,,4,,5>8[16:4],,,,8bpp2[8:2]*<3[8:2],,,,,,,,,,1,,2,,3,,7,,6,,
5>7[8:4]*<3[8:4],,,,,,,,,,,,,,,,2-7[8:1]/6-3[8:1],,,,,,,,1,5,1,,8,4,8,,
{16}2h[16:3],,,4,3,,45,,6h[8:1],,8,,2bqq7[8:4],,,,
7,,,,6,,,,5V71[8:2],,,,1,,,,
3h[16:3],,,4,3,,28,,7h[8:1],,5,,3h[8:1],,5,,
7v4[8:1],,7,,8^3[8:1],,8,,7^4[8:1]*p3[8:1],,,,,,,,
7h[16:3],,,5,6,,54,,3h[8:1],,1,,7h[8:1],,1,,
2v5[8:1],,2,,1^6[8:1],,1,,2,,3,,4>8[8:2],,,,
8b<4[8:2],,,,4,,,,8,,,,62,,3,5,4h[8:1],,6h[8:1],,8h[8:1],,1,,
3^8[16:2],,8z4[16:3]*-6[16:2],,3b,,,,
