&title=空中散歩
&artist=CIEL
&first=0
&des=Yoshino
&lv_5=13
&inote_5=(168){1},
{4}3h[1:1],,,4,4h[1:1],,,5,5h[1:1],,,6,{8}6>3[4:1]*-3[4:1],,,,,,,,
{4}2h[1:1],,,1,1h[1:1],,,8,8h[1:1],,,7,{8}7>2[4:1]*-2[4:1],,,,,,
{8}4q2[16:3]*p8[16:3],,4x,,,,,2,3,,4<6[12:1]*>1[8:1],,4x,,,8,7,6-3[8:1]*>1[4:1],6,,,,,,
{8}8hx[8:1],,8-5q2[4:1]/1-4v3[4:1],,,,,,A2/B2/C/B6/A6/A4/B4/B8/A8,,
{8}1x>5[2:1]/5hx[8:1],,6h[8:1],,7h[4:3],,,,8>4[2:1],,,,7,,6h[8:1],,5hx[4:1],,,,45,,
{8}Ch[8:1],,E1,E8,E7,E6,E5,,,,1xv4qq2[4:1],,8,7,6,,
{8}5qq7>1[2:1],5,4h[4:1],,,,3,,1-6[8:1],1,2,,
{8}3-8[8:1]/7-4[8:1],37,,,1-5-3[2:1],1,5h[4:1],,,,6,,,,
{8}3h[8:1],5h[8:1],3h[8:1],4h[8:1],3-8[4:1],,4,5,6-1[4:1],,5,4,3,,
{8}2h[8:1]/8h[8:1],,2>5[8:1]/8-5[8:1],,,,C,,
{8}6h[4:1],5,3h[4:1],4,7h[4:1],2h[8:1],,,,,
{8}4qq4pp4[2:1],4,5h[4:5],,,,,3V57[4:1],3,,,,8V24[4:1],,5,6,7-4-6[4:1],,4,3,2,,1h[4:3],,8h[2:1],,,,,,C,,
{8}2b<7[8:1],,6q3[8:1],,4<5qq3qq1[4:3],,1,1,8h[8:1],,7h[8:1],,6,,7-4[8:1]/8-4[8:1],,78,,2-5[8:1]/1-5[8:1],,21,,
{8}46,46,3h[1:0],7h[1:0],1h[1:0],5h[1:0],4-6[8:1]/8-2[8:1],,4x/8x,,
{8}7b>2[8:1],,3p6[8:1],,5>4pp6pp8[4:3],,8,8,1h[8:1],,2h[8:1],,3,,2-5[8:1]/1-5[8:1],,21,,7-4[8:1]/8-4[8:1],,78,,
{8}53,53,6h[1:0],2h[1:0],8h[1:0],4h[1:0],5-3[8:1]/1-7[8:1],,5x/1x,,
{8}8b>3[8:1]b,,2x-7[8:1],,4x<6qq8[4:3],,8,8,1h[8:1],,2h[8:1],,3h[1:1],,
{8}1<6[8:1],,1x,,5p1[8:1],,5x,,82,82,{32}7,6,,,3,4,,,
{8}5-1[8:1],5,4<7[8:1]*-2[8:1],,4x,,
{8}1b<6[8:1]b,,7x-2[8:1],,5x>3pp1[4:3],,1,1,8h[8:1],,7h[8:1],,6h[1:1],,
{8}8>3[8:1],,8x,,4q8[8:1],,4x,,17,17,{32}2,3,,,6,5,,,
{8}4-8[8:1],4,5>2[8:1]*-7[8:1],,5x,,
{8}1b-5[8:1],1,7,7,6<1[8:1],6,4,4,3-8[8:1],3,5,5h[4:1],,1,2,3,
{8}4-8[8:1],4,6,6,7<4[8:1],7,1,1,2-5[8:1],,8,8h[4:1],,1,2,3,
{8}4>1[8:1],4,6,6,5<8[8:1],5,3,3,1p5[8:1],,4,4,,3,2,1h[8:3],{16}8-4[8:1],7,6,,8,,,,2,5,2,5,
{8}3hb[2:1],,4V68[4:1],,,,,3h[4:1],8,8,
{24}1x/2x,8,7,6h[1:0],,,1x-5[8:1],2,3,4h[1:0],,,1x,,,,,,
{8}4-2[8:1],4-6[8:1],4-1[8:1],4-7[8:1],4-8[8:1],4,4,,
{8}1-3[8:1]/7-5[8:1],,17,,4-8[8:1]/2-5[8:1],,24,,
{16}4h[8:1]/7h[8:1],,,,6,5,6-1[8:1],,4,,3,,2,,,,2h[8:1]/6h[8:1],,,,
{8}1>4[8:1],,5-8[8:1]*-2[8:1],,5x,,1-4[8:1],5,1-6[8:1],5,1w5[8:1],5,1x,,
{8}4-2[8:1]/6-8[8:1],37,,,3v1[8:1]/7v5[8:1],15,,,{16}8,2,8,2,7x,1,7,1,7x,1,{24}6,5,4,3x,2,1,8,7,6,1b/5b,,,,,,
{8}2>5[8:1],2,1,1,8-4[8:1],8,3,3,2-4[8:1],6-4[8:1],2,6,,5,5,6,
{8}7<4[8:1],7,8,8,1-5[8:1],1,6,6,7-5[8:1],3-5[8:1],7V13[4:1],3,7,,C/B6/B5/B4/E6/E5/A5,,
