&title=日心説
&artist=虎代萇楚
&first=0.026
&des=leopard
&lv_5=13+
&inote_5=(120){2},
{16}B2,{32}E7,,,E4,,,{16}A5,,B8,,{1},
{16}2xh[8:7],,,,B7,,B4h[64:7],,,E3,{64},,,B1,{16},{64},A7,,,
{16},E5,3x<6[2:1],{8},,,5>3[16:3],,,,
{16}8x-3[16:9],,,,,,,3p7[16:3],,,,,,,,,
{16},2q6[8:11],,,,,{1}5q8-3[8:11],{4},,,
{40}B7,B6,B5,3x,2x,{4}1bx,,,,,,{8},
{4}5h[4:1],6h[4:1],7h[4:1],8h[4:1],
(130){16}5x,6x,7x,8x,
(140){16}4xh,3xh,2xh,1xh,
(150){16}5,6,7,8,
(160){16}4h,3h,2h,1bh,
(170)
{8}5,7,3,1,6,4h[4:1],8,6h[4:1],
{8}2,1,3/7-5[8:1],1,7/2-8[8:1],4,2>4[8:1],,{16}5,6,7,,
{8}1,3,7,5,2,3h[4:1],5,7h[4:1],
{8}1,2,4/8-6[8:1],1,3-1[8:1]/8,2,5<7[8:1],,{16}2,3,4,,
{8}12,3,45,6,{16}7,6,5,4,8,1,2,3,
{8}8-5[8:1],5h[8:1],,3-1[8:1],4-8[8:1],,4<6[8:1],,{16}1,2,3,,
{8}87,6,54,3,{16}2,3,4,5,1,8,7,6,
{8}1-5[8:1],5h[8:1],,4-2[8:1],6-1[8:1],,6>4[8:1],,{16}3,2,1,,
{8}78,62,{16}3,4,3,,{16}8,7,6,5,3,2,1,8,
{8}4b,12,18,78,{16}1,5,4,5,2,6,5,6,1b,2,3,4,
{8}7,26,{16}1,8,1,,{16}6,5,4,3,8,1,2,3,
{8}7b,56,45,34,{16}8,5,6,5,1,4,5,4,8b,7,6,5,
{16}1,,4,3,4,,1,6,8,7,2,5,3-8[8:1],4,2,6-8b[16:1],
{16}3b,,,6,,,{8}2,48,3,26,7,{16}4,3,2,1,
{16}84,,6,2,6,,3,1,4,8,5,7,{8}12,34,
{8}56,78,{16}2b/6b-1[8:1],,,3,6b-4[8:1],,4,,2b/6b,,8,,2b,3b,4b,5b,
{24}8bx,7,6,5,4,3,,,,B5f/7bx,8,1,2,3,4,,,,B8f/6bx,5,4,3,2,1,
{16}8b,,3h,B6,,5h,E2,,3b,,8h,,6h,4h,E8,,2b,E5,,7h,
{16}3h[32:1],4h[32:1],5h[32:1],2h[32:1],3h[32:1],4h[32:1],
{16}8h[32:1],1h[32:1],2h[32:1],3h[32:1],6,5,6,1,7,4,
{16}7,2,8,3,8,4,7,2,7,5,6,1,2,5,3,4,{24}1,8,1,8,1,8,
{24}1bx,2,3,4,5,6,,,,B4f/2bx,1,8,7,6,5,,,,B1f/3bx,4,5,6,7,8,
{16}1b,,6h,B3,,4h,E8,,6b,,1h,,3h,5h,E2,,7b,E5,,2h,
{16}6h[32:1],5h[32:1],4h[32:1],7h[32:1],6h[32:1],5h[32:1],
{16}1h[32:1],8h[32:1],7h[32:1],6h[32:1],3,4,3,8,2,5,
{16}2,7,1,6,1,5,2,7,2,4,3,8,7,4,6,5,{24}8,1,8,1,8,1,
{8}8b,2h[8:1],4h[8:1],3h[8:1],5h[8:1],
{8}4h[8:1],6h[8:1],5h[8:1],7h[8:1],
{8}1h[8:1],4h[8:1],8,2,3h[8:1]/5,1,7,4/6h[8:1],2,
{8}7,8,3,5-1[8:3],2,,,,,
{8}2,7,3-8[8:3],5,,,,,
{8}7>6[1:4],6p3b[2:7],E
