&title=マッチョアネーム?
&artist=ダンベル何キロ持てる? ED
&first=0.014
&des=Tane
&freemsg=ダンベル何キロ持てる? ED
&wholebpm=
&des_1=Tane
&des_2=Tane
&des_3=Tane
&des_4=Tane
&des_5=Tane
&lv_1=3
&lv_2=3
&lv_3=6
&lv_4=9
&lv_5=12+
&inote_1=(132){1},
{4}5b,5h[4:15],,,{4},,,,{4},,,,{4},,,,
{8},,4,,
,,,,
{8},,6,,
,,,,
{8},,3,,
,,,,
{8}18,,,,
,,,,
{8}35,,,,
,,,,
{4}3,,,,
{8}74,,,,
,,,,
{4}5,,,,
{8}18,,,,
,,,,
{4}5,,,,
{8}45,,,,
,,,,
{4}8,,,,
{8}82,,,,
,,,,
{8}4,,,,
,,,,
{8},,6,,
,,,,
{16}3,,,,
,,,,
,,,,
,,,,
{8},,5,,
,,,,
{8}8,,,,
,,,,
{8},,,,
,,,,
{8}6,,,,
,,,,
{8}36,,,,
,,,,
{4}4b,,,,
{8}8b,,,,
,,,,
{16}7,,,,
1b,,,,
,,,,
1b,,,,
{4},15,,48,
{4},15,,15,
{4},15,,48,
{4},15,,15,
{4},15,,48,
{4},15,,15,
{4},45,,45,
{4},45,{8}36,,,,
{4},18,,18,
{4},15,,15,
{4},18,,18,
{4},15,,15,
{4},18,,18,
{4},15,,15,
{4},45,,45,
{4},45,,27,
{4},1b,,3b,
{4}4b,,6b,,
{4}8bv5[4:1],,,,
{4},,,,{4}8b,8b,,,{4},,,,{4},,,,
{1},,,,,,,,
&inote_2=(132){1},
{4}5b,5h[4:15],,,{4},,,,{4},,,,{4},,,,
{8},,4,,
,,5,,
{8},,6,,
,,7,,
{8},,3,,
,,,,
{8}18,,,,
,,,,
{8}35,,,,6
,,,,
{4}3,,5,,
{8}74,,,,
4,,,,
{4}5,,36,,
{8}18,,,,
4,,,,
{4}5,,6,,
{8}45,,,,
1,,,,
{4}8,,1,,
{8}82,,,,
2,,,,
{8}4,,4,,
,,,,
{8},,6,,
5,,,,
{16}3,,,,
2,,,,
,,,,
,,,,
{8},,5,,
6,,,,
{8}8,,1,,
,,,,
{8},,,,
3,,,,
{8}6,,,,
5,,,,
{8}36,,,,
2b,,,,
{4}4b,,6b,,
{8}8b,,,,
3,,,,
{16}7,,,,
1b,,,,
,,,,
1b,,,,
{4},15,,48,
{4},15,,15,
{4},15,,48,
{4},15,,15,
{4},15,,48,
{4},15,,15,
{4},45,,45,
{4},45,{8}36,,,,
{4},18,,18,
{4},15,,15,
{4},18,,18,
{4},15,,15,
{4},18,,18,
{4},15,,15,
{4},45,,45,
{4},45,,27,
{4},1b,,3b,
{4}4b,,6b,,
{4}8bv5[4:1],,,,
{4},,,,{4}8b,8b,,,{4},,,,{4},,,,
{1},,,,,,,,
&inote_3=(132){1},
{4}5b,5h[4:15],,,{4},,,,{4},,,,{4},,,,
{8},,4,,
,,5,,
{8},,6,,
,,7,,
{8},,3,,
,,2,,
{8}18,,,,
,,,,
{8}35,,57,,6
,,2/4,,
{4}3,7/5,5,4,
{8}74,,52,,
4,,7/4,,
{4}5,45,36,27,
{8}18,,36,,
4,,3/6,,
{4}5,6/3,6,3,
{8}45,,2/7,,
1,,2/7,,
{4}8,2/7,1,35,
{8}82,,1,,
2,,3,,
{8}4,,4V68[8:3],,
,,,,
{8},,6,,
5,,4,,
{16}3,,,,
2pp1[8:3],,,,
,,,,
,,,,
{8},,5,,
6,,7,,
{8}8,,1V35[8:3],,
,,,,
{8},,2,,
3,,7,,
{8}6,,4,,
5,,36,,
{8}36,,1b,,
2b,,3b,,
{4}4b,5b,6b,7b,
{8}8b,,1,,
3,,5,,
{16}7,,,,
1b,,,1b,
,,1b,,
1b,,,,
{4}4,15,45,48,
{4}45,15,48,15,
{4}4,15,45,48,
{4}45,15,48,15,
{4}4,15,45,48,
{4}45,15,48,15,
{4}4,45,24,45,
{4}57,45,{8}36,,27,,
{4}8,18,48,18,
{4}48,15,48,15,
{4}8,18,48,18,
{4}48,15,48,15,
{4}8,18,48,18,
{4}48,15,48,15,
{4}8,45,57,45,
{4}27,45,36,27,
{4}18,1b,2b,3b,
{4}4b,5b,6b,7b,
{4}2v5[4:1]/8bv5[4:1],,,,
{4},,,,{4}8b,8b,,,{4},,,,{4},,,,
{1},,,,,,,,
&inote_4=(132){1},
{4}8b,5h[4:15],,,{4},,,,{4},,,,{4},,,,
{8},,4,,
,3,,4,
{8},5,,6,
,7,,8,
{8},1,,,
35,,46,,
{8}17,28,,,
,,,,
{8}35,46,57,,6
,,2/4,,
{4}3,7/5,5,4,
{8}74,63,52,,
4,,7/4,,
{4}5,45,36,27,
{8}18,27,36,,
4,,3/6,,
{4}5,6/3,6,3,
{8}45,36,2/7,,
1,,2/7,,
{4}8,2/7,1,35,
{8}82,,1,1,
2,2,3,3,
{8}4,4,4V68[8:3],,
,,,,
{8},,6,6,
5,5,4,4,
{16}3,,3,,
2pp1[8:3],,,,
,,,,
,,,,
{8},,5,5,
6,6,7,7,
{8}8,8,1V35[8:3],,
,,,,
{8},,2,2,
3,3,7,7,
{8}6,6,4,4,
5,5,36,36,
{8}36,,1b,,
2b,,3b,,
{4}4b,5b,6b,7b,
{8}8b,,1,2,
3,4,5,6,
{16}7,,8,,
1b,,,1b,
,,1b,,
1b,,,,
{4}4,15,45,48,
{4}45,15,48,15,
{4}4,15,45,48,
{4}45,15,48,15,
{4}4,15,45,48,
{4}45,15,48,15,
{4}4,45,24,45,
{4}57,45,{8}36,,27,27,
{4}8,18,48,18,
{4}48,15,48,15,
{4}8,18,48,18,
{4}48,15,48,15,
{4}8,18,48,18,
{4}48,15,48,15,
{4}8,45,57,45,
{4}27,45,36,27,
{4}18,1b,2b,3b,
{4}4b,5b,6b,7b,
{4}2v5[4:1]/8bv5[4:1],,,,
{4},,,,{4}8b,5b,,,{4},,,,{4},,,,
{1},,,,,,,,
&inote_5=(132){1},
{4}8b<1[4:14],5h[4:15]/8b,,,{4},,,,{4},,,,{4},,,,
{8},,2h[8:15]/4,,
,3,,4,
{8},5,,6,
,7,,8,
{8},1,,2,
35,1,46,{16}8,8,
{8}17,28,,,
,,,,
{8}35,46,5V31[8:1]/7,,6
,,2/4V68[8:1],,
{4}3,7/5-1[8:1],5V71[8:1],4,
{8}74,63,5V72[8:1]/2,,
4,,7/4V27[8:1],,
{4}5,4V27[8:3]/5V72[8:3],,,
{8}18,27,3v1[8:1]/6,,
4,,3/6v8[8:1],,
{4}5,6/3v1[8:1],6v8[8:1],3,
{8}45,36,2/7qq5[8:1],,
1,,2pp4[8:1]/7,,
{4}8,2/7qq5[8:1],1,{16}35,,1,1,
{16}82,,,,
2,7,5,6,
3,4,2,7,
18,,27,,
{8}36,45,4V68[8:3]/5V31[8:3],,
,,,,
{16},,,,
18,,2,7,
3,6,4,5,
3,6,2,7,
{16}1,8,1,,
2pp1[8:3]/7qq8[8:3],,,,
,,,,
,,,,
{16},,,,
1,6,3,7,
,2,8,4,
6,1,7,3,
{8}5,48,1V35[8:3]*V74[8:3],,
,,,,
{16},,,,
2,5,2,5,
3,4,3,,
6,5,6,5,
{16}8,,1,1,
7,,6,,
1,,2,2,
4,3,5,{32}4,5,
{16}6,,,,{8}2,2h[8:2],
3,3h[8:2],4,4h[4:1],
{8}5,5h[4:1],6,6h[4:1],
7,7h[4:1],8,8,
{8}1,1,{16}1,8,1,8,
2,7,2,7,
3,6,3,6,
{16}4,5,4,5,
3b/6b,,,1b/5b,
,,4b/8b,,
2b/7b,,,,
{4}4-1[8:1],4/5-8[8:1],4-1[8:1]/5,4/5-8[8:1],
{4}4qq4[4:1]/5,4<3[4:1],5pp5[4:1],,
{4}4-1[8:1],4/5-8[8:1],4-1[8:1]/5,4/5-8[8:1],
{4}4qq4[4:1]/5,4<3[4:1],5pp5[4:1],,
{4}4-2[8:1],4/5-7[8:1],4-1[8:1]/5,4/5-8[8:1],
{4}4qq4[4:1]/5,4<3[4:1],5pp5[4:1],,
{4}4,45,24,45,
{8}57,,45,45,
36,36,27,{32}7,,2,3,
{32}4-2[8:1],,,,
,,7,6,{4}5-1[8:1]/4,4-8[8:1]/5,4/5-7[8:1],
{4}4qq5[4:1]/5,4/5<3[4:1],8qq1[4:1],,
{4}4-2[8:1],5-7[8:1]/4,4-1[8:1]/5,4/5-8[8:1],
{4}4qq5[4:1]/5,4/5<3[4:1],8qq1[4:1],,
{4}4-8[8:1],5-1[8:1]/4,4-2[8:1]/5,4/5-7[8:1],
{4}4qq5[4:1]/5,4/5<3[4:1],8qq1[4:1],,
{4}4,4-7[8:1]/5,24,4/5-2[8:1],
{4}57,27,4-1[8:1]/5-8[8:1],4b/5b,
{8}36,,2,2h[4:1],
3,3h[4:1],4,4h[4:1],
{8}5,5,{16}6,6,7,7,
8,8,1,1,
2,2,3,{32}3,4,
{4}5>5[4:7],,,,{4},,,,
{4}1b<5[8:1],7b,,,{4},,,,{4},,,,{4},,,,
{1},,,,,,,,
