&title=曼珠沙華
&artist=まふまふ
&first=-0.06
&des_1=桃源乡一般通过村民
&des_2=桃源乡一般通过村民
&des_3=桃源乡一般通过村民
&des_4=桃源乡一般通过村民
&des_5=桃源乡一般通过村民
&lv_5=13+
&des_6=桃源乡一般通过村民
&des_7=桃源乡一般通过村民
&des=桃源乡一般通过村民
&clock_count=4
&inote_5=(140){1},
{32},4h[1:2],,,,,,,,,,,,,,,,,,,,,,,,,,,,,,,,
,,,,,,,,,,,,,,,,,,,,,,,,,,,,,,,,
7<7s3[8:13],,,,,,,,,,,,,,,,,,,,,,,,,,,,,,,,,,,,,,,,,,,,,,,,,,,,,,,,,,,,,,,
{16}
4hb[16:8],,,,6,,,,6-4[8:1],,,,3,,,,2,,,,1,,,,
{24}8,,,E8,B7,B6,E6,,,
{16},,
3h[16:8],,,,4,,,,4-6[8:1],,,,2,,,,1,,,,8,,,,
{24}7,,,E7,B6,B5,E5,,,
{16},,
3-5[8:1],,,,6,,,,7-1[8:1],,,,2,,,,
3<5[8:1],,,,6,,,,7>1[8:1],,,,2,,,,
3<6[8:1],,,,6,,,,7>2[8:1],,,,2,,,,
3,,,,4,,,,4/7,,
{24}6,5,,
{16}8-4[8:1],,1/6,,
8b>5[4:1]/7b,,6,,8,,6,,7-3[8:1],,5,,
7/8-5[8:1],,,,2>5[8:1]/8v3[8:1],,,,2/8,,,,6<8[8:1]*v1[8:1],,,,6,,,,
8<3[4:1],,3,,8,,2,,1-5[8:1],,8,,
1/5,,6,,4/7b,,3,4,2b,,6,5,7b,,2,1,3b,,4/8,,
7<3[4:1],,3,,7,,2,,1-5[8:1],,,,2/1,,3,,
6,5,7>4[4:1],,1/8,,7,,5pp7[8:1]*>1[8:1],,,,5,,,,
8x<5[8:1],,,,8v3[8:1]*>4[8:1]/2,,,,8,,,,
5,,6,,3/7,,2,8,1-5[8:1],,4/2,,1<2[4:1]/8,,,,1b/Cf,,,,
7-3[8:1],,,,,,4,,4h[4:1],,,,,,3h[16:1],,4-1[8:1],,,,4,,6,,7-3b[8:1],,,,7b/8,,,,
1-5[8:1],,,,,,6,,6h[4:1],,,,,,4h[16:1],,5<7[8:1],,4,,3,,2,,1-5b[8:1],,8,,1b/7,,,,
6-2[8:1],,,,,,4,,4h[4:1],,,,,,1h[16:1],,4-1[8:1],,,,4,,7,,6-2b[8:1],,,,6b/4,,,,
3,,4<7[8:1],,2,,4,,1>4[8:1],,,,1/6pp1[8:4],,,,6,,5,,4,,3,,2w6b[8:1],,,,2b,,,,
E7,B6,B5,E5,E1,B1,B2,E3,
{32}E7,E6,E5,E4,E3,E2,E1,E8,
{16}E7/Cf,,,,
1>4[8:1],,,,,,6,,6h[4:1],,,,,,4h[16:1],,5<8[8:1],,,,5,,3,,2>5b[8:1],,,,1/2b,,,,
8<5[8:1],,,,,,3,,3h[4:1],,,,,,5h[16:1],,4>1[8:1],,6,,4,,7,,8<5b[8:1],,1,,2/8b,,,,
4>5[2:1],,,,,,7,,7h[4:1],,,,,,4h[16:1],,7<4[8:1],,,,7,,2,,1>4b[8:1],,,,1b/7,,,,
6,,5>2[8:1],,7,,5,,8-4[8:1],,,,1pp4[8:4]/8,,,,1,,5,,6,,7p5[8:2],,8,,,,,,,,
3,4,3,,6,5,6,,3,4,2,,6,5,7,,
3,4,3,,6,5,6,,2,4,3,,7,5,6,,
3,3,4,,6,6,5,,2,2,4,,7,7,5,,
2,2,4,,7,7,5,,3,3,4,,6,6,5,,
4/7,,4/7,,3/8,,3/8,,
2/5,,2/5,,1/6,,1/6,,
7,7,5,5,6,6,4,4,5,5,
{32}1,2,3,4,5pp8[8:6],6,7,8,1pp4[8:5],2,3,4,
{16}5,,,,,,,,,,,,,,Ch[4:1],,,,,,
{32}E2,E3,E4,E5,E6,E7,E8,E1,
{16}E2/5bxw1b[12:1],,,,5bx`Cf,,,,
3bxV51[4:1]/7bx,,2/8,,3/7<3[6:1],,8,,7,,,,1,,
5pp4[4:1]/2,,3,,5/4,,3,,2,,1>4[12:1],,8/6,,1/7,,6,,
1bxV72[5:1]/5bx,,,,1/5,,6,,7qq4[4:1],,,,
3/7,,2,,1pp4[4:1],,8,,1/7,,6,,5<4b[8:2],,6,,5/7,,,,
8-4[12:1],,,,
8b/4bV61[5:1],,2,,3,,4>1[12:1],,5,,4,,
7-4[12:1],,,,1-5[12:1]/7-1[16:1],,,,
1>8[4:1]/7,,,,1/3,,,,
4-8[12:1],,8V25[6:1],,4,,7,,6pp4[4:1],,,,
4/6,,3,,2<3[6:1],,,,Cf/2bx,,,,
6bx,,5b/2bx,,8b-4b[12:1]/4b,,2b/6b,,
8b/4b`Cf,,,,3V51[6:1],,2,,3/8>6[4:1],,7,,8,,4,,
1-6[12:1],,2,,1>4[12:1]/6,,5,,4/1w5[12:1],,5,,1,,,,
3bxV14[5:1]/7bx,,,,3/8,,7,,6<1[12:1],,,,
2/6,,3,,4,5,3,6,5,7,4,,8/3,,5/6,,7q4[12:1]/1p4[12:1],,3/4,,1b/7b`Cf,,,,
2bxV46[5:1]/6bx,,6,,7,,8,,8v5[12:1]*v3[12:1],,3>4[16:5],,8,,,,6,,1,,
1v4[12:1]*v6[12:1],,6<5[16:7],,1,,,,
3h[8:2],,,,,,2,,1h[4:1],,,,
8,,2,,3/8,,2,,4/7-3b[12:1],,1-5b[12:1],,7b,,1b,,,,,,
4<1[6:1],,2,,4,,2,,3-7[8:1],,1,,3/8,,6,,4v7[8:1]/8>3[8:1],,,,4/8,,,,4>1[8:1]/8p4[8:1],,,,4/8,,,,
1>6[6:1],,7,,1,,7,,8-4[8:1],,1,,2/8,,3,,4/6b,,6,5,7b/4,,3,4,2b/5,,7,8,
6b/1V38[4:1],,,,1bx/8bx-4[8:1],,,,7bx,,6,,5b,,3b,4,
2V41[4:1],,5,,1bx-5[8:1]/2bx,,,,8bx,,7,,6b,,4b,5,
3V51[4:1],,6,,3bx/1bx-5[8:1],,,,8bx,,7,,6b,,3b,4,2,,1/8,,
2b/7b,,,,,,,,,,,,,,,,,,,,,,,,,,,,,,,,
E
