&title=Recollect Lines
&artist=ああああ VS ぺのれり
&first=0
&des=東雲つむぎ
&lv_5=15
&lv_6=16
&inote_5=(145)
{8},,
{8}3h[4:1]/5,,4,,6,,
(143)
{8}6h[4:1]/4,,5,,3,,
(137)
{8}2h[4:1]/5,,8h[4:1],,6,
(129)
{8}4,7/4h[4:1],,
(129)
{8}6h[4:1],,8h[4:1],,
(124)
{8}1p8[8:12],,,,,,
{24}4,5,4,5,3,5,3,5,3,4,3,4,2,4,2,4,2,3,1,,,,,,,,,,,,,,,,,,
(127)
{24}7,6,5p4[1:1],,,,,,,,,,,,,,,,,,,,,,,,,,,,,,,,,,,,
(200)
{8}25,3,4,47,6,5,3h[4:1],,4,25,,,7,6,5,6,4/7<4[8:1],,,,2,3,4h[4:1],,3,4,2>5[8:1]/5,,,,,
{8}6,5,4,3h[4:1],,5,5,26,3,4,5,6h[4:1],,1,2,3,45,,74,7p4[2:1]/4,,,,,1,,2,,3,,4,,
{8}3h[1:1]/5,5,6,6,,8,8-4[8:1],,,,,
{16}3,4,3,,
{8}1,2,6,8,7,3,5h[4:1]/4,,1,1-5[8:1],,6<3[2:1],,,,,,,,
{8}6h[1:1]/4,4,3,3,,1,1-5[8:1],,,,,
{16}6,5,6,,{8}8,7,3,1,2,6,4h[4:1]/5,,8>6[2:1],,,,
{8}1,2,3<6[8:1],,,,,
(203)
{16}2,4,2,4,3,5,3,5,4,6,4,6,5,7,5,7,1,2,3,4,8,7,6,5,1-5[8:1],2,3,4,5,,,,
{16}7,5,7,5,6,4,6,4,5,3,5,3,4,2,4,2,8,7,6,5,1,2,3,4,8-4[8:1],7,6,5,4,,,,
{16}2,5,3,6,4,7,5,8,4,7,3,6,2,5,1,4,2,3,4,5,8,7,6,5,1-5[8:1],2,3,4,5,,,,
{16}2,4,3,4,3,,7,5,6,5,6,,1,8,1,8,,
{16}2,1,3,8,4,7,5,6,8,7,1,6,2,5,3,4b-8[8:1],,,,45,,6,,7-4[8:1],,7,,1-7[8:1],,1,,,,6,,6h[4:1],,,,5-7[8:1],,4-2[8:1],,5,,4,,8<5[8:1],
{16},,,4h,3,2,1,8,3h,2,1,8,7,2h,1,8,7,6,1h,8,7,6,5,8h,7,6,5,4,7h,6,5,4<1[4:1]/8b,,,,,,,,
{8}2,3,4,5,
{16}1,8,7,6,51,4,3,2,15,4,3,2,15,8,7,6,5/1b<6[8:1],,,,,,5b>2[8:1],,,,,,8b,,,,
{16}1,7,2,8,3,5,4,6,1,4,2,7,5,6,4,7,8/1<1[8:20],,,,,,,,5,,,,,,,,
{8}6,,,,7,,,,8<5[2:1],,,,,,,,
{8}8q4[2:1],,,,4>1[2:1],,,,1<5[2:1]*p4[2:1],,,,,,,,
{8}2h[2:1]/5V38[2:1],,,,,,,,4<2[2:1]/7h[2:1],,,,,,,,7-4[8:3]/4-1[8:3],,,,,,,,
{8}8-4[2:1]/6,,6,,6,,6,,64,,63,,6/2v5[8:1],,,,3/8-4[2:1],,3,,3,,3,,3h[2:1],,4,4,5h[4:1],,2-6[8:1],7,7h[4:1],,5,5h[4:1],,8,8-4[8:1],,2,,1,1h[4:1],,4<2[8:7],,3h[8:7],,,,,,,,,
{16}84,7,6,5,48,3,2,1,84,7,6,5,48,,,,
{8}2,4,3,5h[4:1],,4,45,,,,,7,5,6,4h[4:1],,5,6,7,8h[4:1],,1,,,
(206)
{8}18,,
{8},25,2-5[8:1]/5,,6,6,7<4[8:1],,3,2-6[8:1],,5,5h[4:1],,8,8>4[16:3],,6,6,,7,75,7<4[8:1]/5,,3,3h[4:1],,
{16}4,5,6,7,84,3,2,1,8/6h[4:1],,,,5,,5/7-4[8:1],,,,3,,3,,
(207)
{16}2>5[8:1],,,,6,,7-3[8:1],,,,4,,4h[4:1],,,,1,,1<5[16:3],,,,3,,3h[4:1],,,,4,,4,,2-8[8:1]/5,,1,,6/2,,6p5[8:3],,7,,1b/6,,,,,,
{16}2,3,4,5,1,2,3,4,8,1,2,3,7,8,1,2,3/7h[4:1],,,,5,62,73,84,15,2,3,4,5-1[8:1]/1-5[8:1],,,,1b/5b,,,,3b/7b,,2b-7[8:1]/6b-3[8:1],,,,2b/6b,,,,15,,
{16}1,2,3,4,51,8,7,6,52,3,4,5,61,8,7,6,5b-1[8:1]/1b,,,,
{8}5/2v7[8:1],,2/6>3[8:1],,1b/6,,
{24}84,15,6/2-6[8:1],,,,7,,,7,,,,,,
{16}8,5,8,5,
{24}8,,,37,26,1/5-1[8:1],,,,2,,,2,,,,,,
{16}3,8,4,7,5,6,4b/7bp3[8:1],,,,3,,2b<7[8:1],,,,6,,6b-2[8:1],,,,1,,1b,,,,7,8,1h[8:1]/6h[8:1],,,2h[8:1]/5h[8:1],,,4/3,,3-6[8:1]/4,,,,8,,7<4[8:1],,,,7/4-8[8:1],,2-5[8:1],,,,2,,7h[4:1],,,,5V71[16:3],,4,,,,3,,3,,4/2b<7[8:1],,,,3,,3>6[16:3],,,,5<2[4:1],,,,2b,,
{16}3,4,5,6,7,8,1,2,3h[8:1]/8h[8:1],,,4h[8:1]/7h[8:1],,,65,,{16}6-3[8:1]/5,,,,1,,2>5[8:1],,,,2/5-1[8:1],,7-4[8:1],,,,7,,2h[4:1],,,,4V28[16:3],,5,,,,6,,6,,
{16}7b-3[8:1]/5,8,1,2,3/7b,,,,1b-5[8:1]/2,8,7,6,5/1b,,,,
{16}4b-1[8:1]/7b-4[8:1],,,,4b/7b,,,,2h[8:1]/5h[8:1],,,4h[8:1]/7h[8:1],,,18,,
{16}6/4-8[8:1],,,,6,,5q1[8:1],,,,1<6[8:1]/5,,3-7[8:1],,,,3,,5h[4:1],,,,1<5[8:1],,2,,,,3,,3,,2b-6[8:1]/4,,,,7b,,8b-3[8:1]*-5[8:1],,,,8b,,,,2b/6b,,
{16}3,4,5,6,7,84,15,26,3-6[8:1]/7-2[8:1],,,,,,,,
{24}8b/4b,37,2-6[8:1]/6,,,,7,,,7,,,,,,
{16}8,5,8,5,8,,
{24}4b/7b,36,2/5-1[8:1],,,,3,,,3,,,,,,
{16}2,8,2,8,3,4,1b/5b,,,,6,5,4b/8b-4[8:1],,,,6b,,6b>3[8:1],,,,2b,,2b,,,,
{16}2,1,2,,3,4,3,,25,,2h[4:1]/5,,,,4,3,1-5[8:1],,6h[4:1],,,,,,4<7[8:1],6,3h[4:1],,,,,,8-4[8:1],2,7h[4:1],,,,,,6,,5b-8[8:1]/4,,,,1,,2b-6[8:1],,,,7b>7[1:1],,,,4b,,,,,,,,,,1,,,,1<3[8:12],,,,
(205)
{8}3v5[1:1],,,,,,,,,,,,,,,,
{64}6-1[1:1],2v5[1:1],,,,,,,,,,,,,,,
{8},,,,,,,,,
{16}4,5,3,,,3-6[2:1],,,5,,5h[2:1],,,,,,,,,,,,74,,,,
{32}6h,5,,,,,,,4h,5,,,,,,,3h,4,,,,,,,
{8}25,,
(188)
{8}2q5[1:1]/5,,,,,,,,
(162)
{8}6h[2:1],,,,
(119)
{8}5h[128:1],,
(119)
{8},,
(235)
{16}47,,6,5,6,,3<6[8:1],,3,,7,,7-1[8:1]*-2[8:1],,,,7V53[16:3],,,,37,,,,28,,1,,71,2,3,4,5/7<4[4:1],,,,4>1[4:1],,,,1<6[4:1],,,,6,,,,
(233)
{16}3h[4:1],,,,5,,53,,2-6[8:1],,4,,2V48[4:1]/5,,,,2/7<4[8:1],,,,7,,,,1h[4:1],,,,4,51,62,73,84,1,2,3,4/8b-6[8:1]*-5[8:1],,,,8-2[8:1]*-3[8:1],,,,8-4[8:1],,,,
(231)
{16}8b/4b,,,,3,,35,,2-5[16:3],,17,,2-6[8:1]/6-1[8:1],,,,2b/6b,,,,3b-5[8:1]/7b-5[8:1],,,,37,,,,
{16}2,8,3,7,4-8[8:1]/6,,,,
{16}4b/6b-2[8:1],,,,6b/1bw5[8:1],,,,1b,,,,
(229)
{16}2b,3,4b,3,2b,3,4b,3,2b-6[8:1],,,,1,,,,8,,,,75,,,,{16}7b,6,5b,6,7b,6,5b,6,7b-3[8:1],,,,8,,,,1,,,,24,,,,
(230)
{16}1b,2,5b,4,2b,3,6b,5,47,,,,
{16}8b,7,4b,5,7b,6,3b,4,52,,,,
{16}1,6,1,6,
{16}1,2,3,4,8,7,6,5,4h[2:1]/8,,,,1,,,,2,,,,
(225)
{8}3h[2:1]/5,,4,,2,,1,,8h[2:1]/2,,3,,
{16}4-8[4:1],,,,,,,,,,,,
(215)
{8}7,,4,,
(190)
{8}6,,
(239)
{8}3q6[1:2],,,,
(218)
{8},,
(171)
{12},,,
(194)
{16},,,,,,,,,,,,,,
(213)
{16},,,,,,,,,,,,,,,,,,5q8[8:5],,,,,,,,
(220)
{8}1-4[8:1],,,,
(234.5)
{8}26,
{16}3b,3,4,,5b-1[8:1],,,,7b,,7,,2,,
{16}2b,4,1,,7b,5,8,,3b-5[8:1]/6b-4[8:1],,18,,3b/6b,,,,
{24}2b,1,8,7,6,5,2b,1,8,7,6,5,1b,2,3,4,5,6,8b-4[8:1],,,,,,7b/8b,,,
{16}6b,6,5,,7-3[8:1],,,,2b,,2,,1,,1b,4,3,,8b,5,6,,
{8}7b-3[8:1]/4>1[8:1],,4b-6[8:1]/7,,8b/4,,
{24}8b,1,2,3,4,5,6,,,
{32}8b,7,6,5,4,3,2,1,8b,,,,
(236)
{8}2b>5[8:1],2,7-4[8:1],7,3>8[8:1],3,6-2[8:1],6,4b-8[8:1],4,7-3[8:1],7,1q5[8:1],1,6,6,
{24}4b,,,,4,3,2,1,8,7,6,4,3,2,1,8,7,6,3,2,1,8,7,6,5/1b-6[8:1],,,
{8}1,4-8[8:1],4,7,7,16,16,25,25,34,34,
(230)
{24}87,6,5,4,,,12,3,4,5,,,1b/8b,,,,,,
{16}3,4,2,6,5,7,
{24}1,2,3,7,6,5,2,3,4,
(230)
{8}8b-4[1:2]*-4[1:2]*-4[1:2],,,,,,,,,,,,,,,,,,,,,,,,
(235)
{8}35,3,64,6,25,2,74,7,18,18,27,27,36,36,
{16}4,5,4,5,4,5,4,,2b/4b,,7b/5b,,1b/8b,,1b-4[8:1]/8b-5[8:1],,3b/6b,,1b/8b,
&inote_6=(145)
{8},,
{8}3h[4:1]/5,,4,,6,,
(143)
{8}6h[4:1]/4,,5,,3,,
(137)
{8}2h[4:1]/5,,8h[4:1],,6,
(129)
{8}4,7/4h[4:1],,
(129)
{8}6h[4:1],,8h[4:1],,
(124)
{8}1p8[8:12],,,,,,
{24}4,5,4,5,3,5,3,5,3,4,3,4,2,4,2,4,2,3,1,,,,,,,,,,,,,,,,,,
(127)
{24}7,6,5p4[1:1],,,,,,,,,,,,,,,,,,,,,,,,,,,,,,,,,,,,
(200)
{8}25,3,4,47,6,5,3h[4:1],,4,25,,,7,6,5,6,4/7<4[8:1],,,,2,3,4h[4:1],,3,4,2>5[8:1]/5,,,,,
{8}6,5,4,3h[4:1],,5,5,26,3,4,5,6h[4:1],,1,2,3,45,,74,7p4[2:1]/4,,,,,1,,2,,3,,4,,
{8}3h[1:1]/5,5,6,6,,8,8-4[8:1],,,,,
{16}3,4,3,,
{8}1,2,6,8,7,3,5h[4:1]/4,,1,1-5[8:1],,6<3[2:1],,,,,,,,
{8}6h[1:1]/4,4,3,3,,1,1-5[8:1],,,,,
{16}6,5,6,,{8}8,7,3,1,2,6,4h[4:1]/5,,8>6[2:1],,,,
{8}1,2,3<6[8:1],,,,,
(203)
{16}2,4,2,4,3,5,3,5,4,6,4,6,5,7,5,7,1,2,3,4,8,7,6,5,1-5[8:1],2,3,4,5,,,,
{16}7,5,7,5,6,4,6,4,5,3,5,3,4,2,4,2,8,7,6,5,1,2,3,4,8-4[8:1],7,6,5,4,,,,
{16}2,5,3,6,4,7,5,8,4,7,3,6,2,5,1,4,2,3,4,5,8,7,6,5,1-5[8:1],2,3,4,5,,,,
{16}2,4,3,4,3,,7,5,6,5,6,,1,8,1,8,,
{16}2,1,3,8,4,7,5,6,8,7,1,6,2,5,3,4b-8[8:1],,,,45,,6,,7-4[8:1],,7,,1-7[8:1],,1,,,,6,,6h[4:1],,,,5-7[8:1],,4-2[8:1],,5,,4,,8<5[8:1],
{16},,,4h,3,2,1,8,3h,2,1,8,7,2h,1,8,7,6,1h,8,7,6,5,8h,7,6,5,4,7h,6,5,4<1[4:1]/8b,,,,,,,,
{8}2,3,4,5,
{16}1,8,7,6,51,4,3,2,15,4,3,2,15,8,7,6,5/1b<6[8:1],,,,,,5b>2[8:1],,,,,,8b,,,,
{16}1,7,2,8,3,5,4,6,1,4,2,7,5,6,4,7,8/1<1[8:20],,,,,,,,5,,,,,,,,
{8}6,,,,7,,,,8<5[2:1],,,,,,,,
{8}8q4[2:1],,,,4>1[2:1],,,,1<5[2:1]*p4[2:1],,,,,,,,
{8}2h[2:1]/5V38[2:1],,,,,,,,4<2[2:1]/7h[2:1],,,,,,,,7-4[8:3]/4-1[8:3],,,,,,,,
{8}8-4[2:1]/6,,6,,6,,6,,64,,63,,6/2v5[8:1],,,,3/8-4[2:1],,3,,3,,3,,3h[2:1],,4,4,5h[4:1],,2-6[8:1],7,7h[4:1],,5,5h[4:1],,8,8-4[8:1],,2,,1,1h[4:1],,4<2[8:7],,3h[8:7],,,,,,,,,
{16}84,7,6,5,48,3,2,1,84,7,6,5,48,,,,
{8}2,4,3,5h[4:1],,4,45,,,,,7,5,6,4h[4:1],,5,6,7,8h[4:1],,1,,,
(206)
{8}18,,
{8},25,2-5[8:1]/5,,6,6,7<4[8:1],,3,2-6[8:1],,5,5h[4:1],,8,8>4[16:3],,6,6,,7,75,7<4[8:1]/5,,3,3h[4:1],,
{16}4,5,6,7,84,3,2,1,8/6h[4:1],,,,5,,5/7-4[8:1],,,,3,,3,,
(207)
{16}2>5[8:1],,,,6,,7-3[8:1],,,,4,,4h[4:1],,,,1,,1<5[16:3],,,,3,,3h[4:1],,,,4,,4,,2-8[8:1]/5,,1,,6/2,,6p5[8:3],,7,,1b/6,,,,,,
{16}2,3,4,5,1,2,3,4,8,1,2,3,7,8,1,2,3/7h[4:1],,,,5,62,73,84,15,2,3,4,5-1[8:1]/1-5[8:1],,,,1b/5b,,,,3b/7b,,2b-7[8:1]/6b-3[8:1],,,,2b/6b,,,,15,,
{16}1,2,3,4,51,8,7,6,52,3,4,5,61,8,7,6,5b-1[8:1]/1b,,,,
{8}5/2v7[8:1],,2/6>3[8:1],,1b/6,,
{24}84,15,6/2-6[8:1],,,,7,,,7,,,,,,
{16}8,5,8,5,
{24}8,,,37,26,1/5-1[8:1],,,,2,,,2,,,,,,
{16}3,8,4,7,5,6,4b/7bp3[8:1],,,,3,,2b<7[8:1],,,,6,,6b-2[8:1],,,,1,,1b,,,,7,8,1h[8:1]/6h[8:1],,,2h[8:1]/5h[8:1],,,4/3,,3-6[8:1]/4,,,,8,,7<4[8:1],,,,7/4-8[8:1],,2-5[8:1],,,,2,,7h[4:1],,,,5V71[16:3],,4,,,,3,,3,,4/2b<7[8:1],,,,3,,3>6[16:3],,,,5<2[4:1],,,,2b,,
{16}3,4,5,6,7,8,1,2,3h[8:1]/8h[8:1],,,4h[8:1]/7h[8:1],,,65,,{16}6-3[8:1]/5,,,,1,,2>5[8:1],,,,2/5-1[8:1],,7-4[8:1],,,,7,,2h[4:1],,,,4V28[16:3],,5,,,,6,,6,,
{16}7b-3[8:1]/5,8,1,2,3/7b,,,,1b-5[8:1]/2,8,7,6,5/1b,,,,
{16}4b-1[8:1]/7b-4[8:1],,,,4b/7b,,,,2h[8:1]/5h[8:1],,,4h[8:1]/7h[8:1],,,18,,
{16}6/4-8[8:1],,,,6,,5q1[8:1],,,,1<6[8:1]/5,,3-7[8:1],,,,3,,5h[4:1],,,,1<5[8:1],,2,,,,3,,3,,2b-6[8:1]/4,,,,7b,,8b-3[8:1]*-5[8:1],,,,8b,,,,2b/6b,,
{16}3,4,5,6,7,84,15,26,3-6[8:1]/7-2[8:1],,,,,,,,
{24}8b/4b,37,2-6[8:1]/6,,,,7,,,7,,,,,,
{16}8,5,8,5,8,,
{24}4b/7b,36,2/5-1[8:1],,,,3,,,3,,,,,,
{16}2,8,2,8,3,4,1b/5b,,,,6,5,4b/8b-4[8:1],,,,6b,,6b>3[8:1],,,,2b,,2b,,,,
{16}2,1,2,,3,4,3,,25,,2h[4:1]/5,,,,4,3,1-5[8:1],,6h[4:1],,,,,,4<7[8:1],6,3h[4:1],,,,,,8-4[8:1],2,7h[4:1],,,,,,6,,5b-8[8:1]/4,,,,1,,2b-6[8:1],,,,7b>7[1:1],,,,4b,,,,,,,,,,1,,,,1<3[8:12],,,,
(205)
{8}3v5[1:1],,,,,,,,,,,,,,,,
{64}6-1[1:1],2v5[1:1],,,,,,,,,,,,,,,
{8},,,,,,,,,
{16}4,5,3,,,3-6[2:1],,,5,,5h[2:1],,,,,,,,,,,,74,,,,
{32}6h,5,,,,,,,4h,5,,,,,,,3h,4,,,,,,,
{8}25,,
(188)
{8}2q5[1:1]/5,,,,,,,,
(162)
{8}6h[2:1],,,,
(119)
{8}5h[128:1],,
(119)
{8},,
(235)
{16}47,,6,5,6,,3<6[8:1],,3,,7,,7-1[8:1]*-2[8:1],,,,7V53[16:3],,,,37,,,,28,,1,,71,2,3,4,5/7<4[4:1],,,,4>1[4:1],,,,1<6[4:1],,,,6,,,,
(233)
{16}3h[4:1],,,,5,,53,,2-6[8:1],,4,,2V48[4:1]/5,,,,2/7<4[8:1],,,,7,,,,1h[4:1],,,,4,51,62,73,84,1,2,3,4/8b-6[8:1]*-5[8:1],,,,8-2[8:1]*-3[8:1],,,,8-4[8:1],,,,
(231)
{16}8b/4b,,,,3,,35,,2-5[16:3],,17,,2-6[8:1]/6-1[8:1],,,,2b/6b,,,,3b-5[8:1]/7b-5[8:1],,,,37,,,,
{16}2,8,3,7,4-8[8:1]/6,,,,
{16}4b/6b-2[8:1],,,,6b/1bw5[8:1],,,,1b,,,,
(229)
{16}2b,3,4b,3,2b,3,4b,3,2b-6[8:1],,,,1,,,,8,,,,75,,,,{16}7b,6,5b,6,7b,6,5b,6,7b-3[8:1],,,,8,,,,1,,,,24,,,,
(230)
{16}1b,2,5b,4,2b,3,6b,5,47,,,,
{16}8b,7,4b,5,7b,6,3b,4,52,,,,
{16}1,6,1,6,
{16}1,2,3,4,8,7,6,5,4h[2:1]/8,,,,1,,,,2,,,,
(225)
{8}3h[2:1]/5,,4,,2,,1,,8h[2:1]/2,,3,,
{16}4-8[4:1],,,,,,,,,,,,
(215)
{8}7,,4,,
(190)
{8}6,,
(239)
{8}3q6[1:2],,,,
(218)
{8},,
(171)
{12},,,
(194)
{16},,,,,,,,,,,,,,
(213)
{16},,,,,,,,,,,,,,,,,,5q8[8:5],,,,,,,,
(220)
{8}1-4[8:1],,,,
(234.5)
{8}26,
{16}3b,3,4,,5b-1[8:1],,,,7b,,7,,2,,
{16}2b,4,1,,7b,5,8,,3b-5[8:1]/6b-4[8:1],,18,,3b/6b,,,,
{24}2b,1,8,7,6,5,2b,1,8,7,6,5,1b,2,3,4,5,6,8b-4[8:1],,,,,,7b/8b,,,
{16}6b,6,5,,7-3[8:1],,,,2b,,2,,1,,1b,4,3,,8b,5,6,,
{8}7b-3[8:1]/4>1[8:1],,4b-6[8:1]/7,,8b/4,,
{24}8b,1,2,3,4,5,6,,,
{32}8b,7,6,5,4,3,2,1,8b,,,,
(236)
{8}2b>5[8:1],2,7-4[8:1],7,3>8[8:1],3,6-2[8:1],6,4b-8[8:1],4,7-3[8:1],7,1q5[8:1],1,6,6,
{24}4b,,,,4,3,2,1,8,7,6,4,3,2,1,8,7,6,3,2,1,8,7,6,5/1b-6[8:1],,,
{8}1,4-8[8:1],4,7,7,16,16,25,25,34,34,
(230)
{24}87,6,5,4,,,12,3,4,5,,,1b/8b,,,,,,
{16}3,4,2,6,5,7,
{24}1,2,3,7,6,5,2,3,4,
(230)
{8}8b-4[1:2]*-4[1:2]*-4[1:2],,,,,,,,,,,,,,,,,,,,,,,,
(235)
{8}35,3,64,6,25,2,74,7,18,18,27,27,36,36,
{16}4,5,4,5,4,5,4,,2b/4b,,7b/5b,,1b/8b,,1b-4[8:1]/8b-5[8:1],,3b/6b,,1b/8b,
