&title=鏡面の波(ramble mix)
&artist=YURiKA Remixed by BEMANI Sound Team “DJ TOTTO”
&first=0
&des=DJ SN
&lv_5=13+
&inote_5=(175)
{4},,,,
{8}3,3h[4:1],4,4,{4},{8}3,3h[4:1],1,1-5[8:3],{4},,,
{8}6,6h[4:1],5,5,{4},{8},6h[4:1],5,4,{4},{8}7,7h[4:1],5,5,
6,6h[4:1],5,5,{4},{8}6,6h[4:1],8,8-4[8:3],{4},{2}5b,
{8}3,3h[4:1],4,4,{4},{8},3h[4:1],4,5,{4},{8}2,2h[4:1],4pp8[4:3],4,
{4}1b,{2},{8}2pp5[4:3],2,{4}1,{2},{8}6pp1[4:3],6,
{4}5,{2},{8}2,2,{4}1<6[4:1],6>3[4:1],{16}3q8[4:1],,,,2,,2,,
1pp5[4:3],,,,,,,,,,,,6,,6pp1[4:3],,
,,,,,,,,,,,,5,,5p2[4:3],,
,,,,,,,,,,,,8,,8>7[8:5],,
,,,,4h[8:4],,,,,,,,,,,,
36,,4,,5,,6,,3h[8:3],,4,,5,,6,,
3,,4,,5,,6,,2,,3,,4-1[8:1],,5,,
6,,6,,5,,4,,3,,3,,4,,5,,
6,,6,,5,,6,,3,,3,,4>1[8:1],,3,,
6,,5,,4,,3,,6h[8:3],,5,,4,,3,,
6,,5,,4,,3,,7b,,6,,5-8[8:1],,4,,
3,,3,,4,,5,,6,,6,,5,,4,,
3,,6,,3,,5,4,5<8[8:1],4,5,,3b,,,,
2h[8:4]/1b>7[2:1],,,,,,,,,,,,1,,1>7[2:1],,
2h[2:1],,,,,,,,,,,,1q7[8:3],,1,,
2h[2:1],,,,,,,,8,,,,1q7[8:3]/7,,2,,
3h[4:1],,,,,,,,3<5[8:1],,3,,,,,,
7h[4:1]/6bp8[8:3],,,,,,,,5,,,,7,,7h[8:1],,
6p8[8:3],,,,,,,,5,,,,7,,7h[8:1],,
5>8[8:3],,,,,,,,6,,,,7,,7,,
5h[8:1],,6,4h[8:1],,5w,3,4,3,,25,,,,1,,
7h[8:4]/8b<2[2:1],,,,,,,,,,,,8,,8<2[2:1],,
7h[2:1],,,,,,,,,,,,8,,8-5[8:1],,
,,6-1[8:1],,,,2-5[8:1],,,,4-1[8:1],,,,6-4[8:1],,
,,7,,7-3[8:1],,,,8>3[8:1]*<5[8:1],,,,,,,,
4-8[8:1],,,,34,,,,5-1[8:1],,,,65,,7,,
8-4[8:1],,8,,1-3[8:1],,1,,7-5[8:1],,7,,8,,1,,
2,4,2,4,3,5,3,5,4,6,4,6,5<4[16:5],7,5,7,
5b,,,,,,,,{32}8,7,6,5,4,3,2,1,
{8}8bq4[8:1]/4bV28[4:1],,8V64[4:1]/4,,4>6[8:3],,,6V42[8:2],5-8[8:1],,
,,1v4[8:1]/7v4[8:1],26,17,,2-6[8:1]/6-4[8:1],35,
6pp3[4:2]/2,,5,,,5,5<2[8:2],,
2V86[4:1],,3,,4w8[8:1],,4,,
{16}2-5[8:1]/6-1[8:1],,,,26,,,,7-4[8:1]/3-8[8:1],,,,37,,,,
1>4[4:1]/5,,,,4q6[8:3],,4,,,,6-3[8:1],,6,,,,
7<4[8:1],,,,78,,1-5[8:1],,,,1,,6,,7,,
85,,85,,7-4[8:1],6,7,6,7,,8,,{8}1bp5[8:1]/5bV71[4:1],,
1V35[4:1]/5,,5<3[8:3],,,3V57[8:2],4-1[8:1],,
,,8v5[8:1]/2v5[8:1],73,8b/2b,,7-3[8:1]/3-5[8:1],64,
3qq6[8:3]/7,,4,,3qq7[8:3],,5,,
6pp2[8:3],,4,,1s5[4:1],,,,
{16}6<1[4:1],,,4,,,3,,2>5[4:1],,,8,,,7,,
6-8[8:1],,,,64,,5-1[8:1],,,,5,,8-4[8:1],,,,
82,,1-3[8:1],,5,,1<5[16:3],,,,4,,4h[4:1],,,,
6,5,,3,4,,5,4,6,3,6,3,2/7-4[8:1],,18,,
2q3[4:6]/7b,,,,,,,,,,,,5,,,,,,5,,,,6,,6-1[8:1],,,,,,,,
7p6[4:6]/2b-5[8:1],,,,,,,,,,,,4,,,,,,4,,,,3,,3-8[8:1],,,,,,,,
1p6[4:6]/7b-4[8:1],,,,,,,,,,,,5,,,,,,5,,,,4,,4-1[8:1],,,,,,,,
8q3[4:6]/2b-5[8:1],,,,,,,,,,,,4,,,,,,4,,,,5,,5-8[8:1],,,,,,,,
3h[4:2],,4,,5,,6h[8:1],,,,,,4h[8:5],,5,,6,,7h[8:3],,,,,,5,,5,,5,,5,,
6h[4:2],,5,,4,,3h[8:1],,,,,,7h[4:2],,6,,5,,4h[8:1],,,,,,8,,7,,6,,5,,
6h[4:2],,5,,4,,3h[8:1],,,,,,5h[8:5],,4,,3,,2h[8:3],,,,,,4,,4,,4,,4,,
3h[4:2],,4,,5,,6h[8:1],,,,,,2h[4:2],,3,,4,,5h[8:1],,,,,,1,,2,,3,,4,,
3,,4-1[8:1],,4,,5,,,,,,6,,5<8[8:1],,5,,4b,,,,,,
