&title=ヒストリー×ブレイカー
&artist=⊿TRiEDGE
&first=0
&des=⊿TRiEDGE
&lv_5=13+
&inote_5=(134)
{1}
,
{16}
3xh[4:1]/5xh[4:1],,,,,,,,1x/6x,,,3x/8x,,,2xh[4:1]/7x-3[8:1],,
{16}
,,,,,,1,,8x/2x,,,7x/3x,,,6x/4x,,
{16}
6bh[8:1]/5b,,,,2bh[8:1]/3b,,,,3x/5x,,,4x/6x,,,1x<5[4:1]/2xh[8:3],,
{16}
,,,,,,,,3,4,2,4,3,5,1,5,
{16}
3bxh[4:1]/6bxh[4:1],,,,,,,,2x/5x,,,4x/7x,,,6xh[8:3]/3x-8[8:1],,
{16}
,,,,,,7,,6x/5x,,,5x/4x,,,4x-6[8:1]/3x-5[8:1],,
{16}
,,,,,,7,,2/5,2/5,,4/7,,,1pp4b[8:3]/5pp8b[8:3],,
{16}
,,,,,,,,,,,,8-4[8:1],,,,
{16}
Cf/3x-5-8-3[1:1],,,,,,,,,,,,,,,,
{16}
,,,,,,6,,6h[8:1]/5,,,,3h[8:1]/4,,,,
{16}
5/7h[8:1],,,,2h[8:1]/4,,,,3h[8:1]/6h[8:1],,,,1/8,,2x-5[8:1]/7x-4[8:1],,
{16}
,,Cf/B6/B5/B4/B3,,,,,,2/5,,3,4,,4,,,
{16}
2-8[8:1]/5,,,,6,,7,,7/4,,6,5,,5,6,,
{16}
7-5[8:1]/4,,,,3,,2,,2/5,,6,5,7,,4,5,
{16}
3-8[8:1],,7-4[8:1],,3,,7,,1,5,2,6,3,6,4,7,
{16}
1b-5[8:1],,,,7<4[8:1],,,,8x-4[8:1],,1x,,2bx-6[8:1],,,,
{16}
2b/6b/Cf,,,,8h[4:1],,,,3-5[8:1],,5-2[8:1],,7<4[8:1],,7>2[8:1],,
{16}
,,,,,,7-4[8:1],,4V61[4:1],,2-5[8:1],,2,,,,
{16}
,,4/8,,5/7,,2/6,,3/5,,1/8,,2-6[8:1]/7,,3,,
{16}
8b-4[8:1],,,,2>5[8:1],,,,1bx-5[8:1],,8x,,7bx-3[8:1],,,,
{16}
7b/3b/Cf,,,,1/2h[4:1],,,,6-4b[8:1],,4-7[7:1],,2>5b[8:1],,2<7[8:1],,
{16}
,,,,,,4-2[8:1],5,2-5[8:1],,5-1[8:1],,8,,8,,
{16}
7x-4[8:1],,6,,2x-5[8:1],,3,,8x,,7-1b[8:1],,6,,5-3b[8:1],,
{16}
,,6-2b[8:1],,,,1,,1x-4[8:1]*V74[4:1],,,,,,,,
{16}
2>8[2:1],,,,,,,,,,,,6,,6p4[2:1],,
{16}
,,,,,,,,,,,,3h[4:1],,,,
{16}
4q1[4:1],,5,,6,,7,,,,8q5[4:1],,7,,6>8[2:1],,
{16}
,,,,,,,,,,,,6xh[4:1]/3x,,,,
{16}
5p8b[4:1],,4,,3,,2,,,,1p4b[4:1],,2,,3-8[8:1],,
{16}
,,,,,,6,,6/7,,,5/8,,,1/4-8[8:1],,
{16}
1-5[8:1],,,,,,8,,8,,,3,4,,2-5[8:1]/5,,
{16}
,,7-4[8:1],,,,8,,1-6[8:1]*-4[8:1],,,,C,,,,
{16}
5bx-8[1:1],,,,4h[8:1],,,,4h[8:1],,,,3h[8:1],,,,
{16}
2h[8:1],,,,3h[8:1],,,,4h[8:1],,,,4h[8:1],,,,
{16}
4h[8:1]/6,,,,4>1[8:1]/3,,,,5h[8:1],,,,6h[8:1]/1,,,,
{16}
6h[8:1]/7,,,,2/5pp5[4:1],,,,4h[4:1],,,,,,,,
{16}
3-5[8:1],,,,3/6-8[8:1],,,,6/4-8[8:1],,3,,4/8-4[8:1],,7,,
{16}
6-4[8:1],,,,6/3-1[8:1],,,,3/5-1[8:1],,6,,1/5,,2,,
{16}
3/4,,5/6,,7/8,,1/2,,3,8,4,7,5,6,5b-2[16:1],,
{16}
,,7b-4[16:1],,,,1b,,8w4[8:1],,2/6,,Cf,,,,
{24}
2/6,3,4,5h[8:1],,,2,3,4,5h[8:1],,,{16}1,,6,5,7,4,,2,
{16}
8h[8:1],,{32}3x,4x,5x,,1h[8:1],,,,6x,5x,4x,,8h[8:1],,,,3x,4x,5x,,{16}1x-6[8:1],5x-2[16:1],,,
{16}
1b/5b,,,,2-7[8:1]/6-3[8:1],,3/7,,2/6,,,,8>3b[8:1]/4<7b[8:1],,1/5,,
{16}
4/8,,,,1>4b[8:1]/8<5b[8:1],,2/7,,1/8,,,,3/7,,4,4,
{32}
7h[8:1],,,,5x,4x,3x,,6h[8:1],,,,4x,3x,2x,,5,,,,1/7,,,,2,,6,,4,,8,,
{32}
2h[8:1],,,,7x,6x,5x,,1h[8:1],,,,6x,5x,4x,,{16}8,4,1,5,2,6b,,,
{16}
4-2[8:1],,5-7[8:1],,4,,5,,1,8,2,7,3,6,4h[4:1],,
{16}
,,5,,3,4,3,7,4,5,4,8,5,6,5,1,
{16}
Ch[32:1],,,,,,4,5,2-7[8:1]/6-3[8:1],,,,2b/6b,,,,
{32}
8b<5[8:1],1,2,,{16},,4-7[8:1],,3,3,4-8[8:1],,2,2,4,3h[16:3],,,
{16}
1h[8:1],,4,8,2h[8:1],,5,1,3h[8:1],,8,4,2,6,4V28[4:1],,
{16}
,,8x-3[8:1],,3x-6[8:1],,6x-2[8:1],,2x>5[8:1],,5x<8[8:1],,8x>3[8:1],,3x-7[8:1]*-8[8:1],,
{16}
,,,,,,1,6,2,5,3,4,3-5[8:1],,,,
{16}
5b>2[8:1]/3b,,7,7,5-1[8:1],,6,6,5-2[8:1],,7,7,5,6h[16:3],,,
{16}
8h[8:1],,5,1,7h[8:1],,4,8,6h[8:1],,1,5,7,3,5-1[8:1],,
{16}
,,5x<7[8:1],,4x>2[8:1],,5x-8[8:1],,4x-1[8:1],,5x,,4x,,6x,,
{16}
8b-4b[8:1],,,,2>5[8:1],,,,1-5[8:1],,8,,7-3b[8:1],,,,
{16}
7b/3b,,,,4,5,4h[8:1],,6,5,,5,6h[8:1],4,4,,
{32}
6x/3x,7x/2x,,,{16},,8,,3,4h[16:3],,,1xh,5,4q8[8:1],5,1xh,,
{16}
2,,,,3,4,3h[8:1],,5h[8:1],,2,6,3,6,4h[16:3],,
{16}
,7,5,6,2,4,3,1,3,8,3,7,2-6[8:1],,,,
{16}
2b/6b,,,,5,4,5h[8:1],,3,4,,4,3h[8:1],5,5,,
{32}
3x/6x,2x/7x,,,,,,,{16}1,,6,5h[8:1],,7h[8:1],,3,{48}E6,E5,E4,E3,E2,E1,E8,E7,,,,,
{16}
3,,4/5,,8/7,,1/2,,3,8,5,6,1,4,3,,
{16}
A7/D8/E8/B7/E7/B6/E6/D6/A6,,,,A1/D2/A2/B2/C/B3/A3,,,,E8/B7/B6/E6,,,,8/1-6[8:1],,,,
{16}
3h[4:3],,,,,,,,3?-7b[8:1],,,,,,,,
{16}
1bh[8:3]/2b,,,,,,,,B7/E7/3x,,,6x/B3/E3,,,8bx/C,,
{16}
,1,1,6,6,3,3,,7x/5x,,,2x/4x,,,8x/1xh[1:1],,
{16}
,,3x,,7x,,4x,,5bx,,7bx,,2bx,,8bx,,
{16}
,,2,4,3,7,5,6,4x-8[8:1],4x,4x,4x,4x<7[8:1],,,,
{16}
1b>4[8:1]/4b,,,,5-2[8:1],,6,6,5-1[8:1],,7,7,5,6h[16:3],,,
{16}
8h[8:1],,5,1,7h[8:1],,4,8,6h[8:1],,1,5,7,3,5-1[8:1],
{16}
,,,5x<8[8:1],,4x>1[8:1],,5x-2[8:1],,4x-7[8:1],,5x,,4x,,1x,,
{16}
8b-4b[8:1],,,,2>5[8:1],,,,1-5[8:1],,8,,7-3b[8:1],,,,
{16}
7b/3b,,,,2/6,,8>3[8:1],1,,6,8x,7,7,,4<7[8:1],5,
{16}
,2,4x,3,3,,8,1,7,,5/6,,2/4,,{32}2x/5b,3x,{16}4x,
{16}
7b,,{32}7x/4x,6x,{16}5x,2x,,{32}2x/6b,3x,{16}4x,8b,,{32}7x/3x,6x,{16}5x,1x,,7/3,,
{16}
1/2,,3/5,,7/8,,4/6,,3/5,,2/7,,{32}4bx/5bx,3bx/6bx,2bx/7bx,1bx/8bx,{16},,
{16}
E1/B8/B1`Cf`E5/B5/B4,,,,3/7,,1<6b[8:1],8,,3,1x,2,2,,5>2b[8:1],4,
{16}
,7,5x,6,6,,1,8,2,,3/4,,7/5,,{32}8x/4b,7x,6x,5x,
{16}
2b,,{32}1x/5x,2x,3x,4x,{16}7x,,{32}7x/3b,6x,5x,4x,{16}1b,,{32}2x/6x,3x,4x,5x,{16}8x,,2/6,,
{16}
1b-5[8:1],,,,7<4b[8:1],,,,8bx-4[8:1],,1x,,2bx-6b[8:1],,,,
{16}
2b/6b/Cf,
