&title=Inverted World
&artist=ARForest
&first=0.1
&des=Astral ↓↑ ןɐɹʇsⱯ
&des_5=Astral ↓↑ ןɐɹʇsⱯ
&lv_5=14
&inote_5=(180)
{1}3-1-7-5<3[4:13]/5h[4:15],,,,
{8}2>5[8:3],,,5<1[8:3],,,1>6[8:3],,,6<2[4:1],,,4q8[8:1]*qq2[8:1],,,,
{8}7<4[8:3],,,4>8[8:3],,,8<3[8:3],,,3>7[4:1],,,5p1[8:1]*pp7[8:1],,,,
{8}D6/D7/A6,,2h[8:1],E1,,3h[8:1],E8/B8,,4h[8:1],B6/D7/E7,,5,5-1[8:1],,D8/A7/D7,,
{8}2,,7h[8:1],E1,,6h[8:1],E2/B1,,5h[8:1],B3/D3/E3,,4,4-8[8:1],,D2/A2/D3,,
{8}7,,2h[8:1],E1,,3h[8:1],E8/B8,,4h[8:1],B6/D7/E7,,5,5-1[8:1],,D8/A7/D7,,
{8}2,,7h[8:1],E1,,6h[16:8],C,,
{16},,A3,A4,A5,A6,A7,A8,A1/5x,4x,3x,2x,1x-5b[8:1],8x,7x,6x,
{8}1x/5x,,7h[4:1],,3-5[8:1],5V38[4:1],3,7-4[8:1],,7,1,,2-5[8:1],5>4-8[4:1],2,7-3[8:1],
{8},7,1,,2-5[8:1],5V38[4:1],2,7-4[8:1],,7,1-5[8:1],2,3-8[8:1]*-6[8:1],4,3,,
{8}1x-5b[8:1],,2h[4:1],,6-4[8:1],4V61[4:1],6,2-5[8:1],,2,8,,7-4[8:1],4<5-1[4:1],7,2-6[8:1],
{8},2,8,
{16}5,4,3/8,7,6,5,4/3,2,1,8,
{8}6/7x,6,5x/6,6,3/4p8[8:1],6,
{16}4/8,7,6,5,
{8}4bx-8[8:1],,2h[4:1],,1p5[8:1],5v7[8:1],1,3>8[8:1],,3,5h[4:1],,8q4[8:1],4v2[8:1],8,6<1[8:1],
{8},6,5h[4:1],,1p4[8:1],4v6[8:1],1,2<7[8:1],,4,5>2[8:1],6,7v4[8:1],8-3[8:1],7,8,
{8}5-1[8:1],,7h[4:1],,8q4[8:1],4v2[8:1],8,6<1[8:1],,6,4h[4:1],,1p5[8:1],5v7[8:1],1,3,
{8}2,3-8[8:1],4,3/7,6-1[8:1],5,2/6,3,4/8,8,3/7,3,2/6,1/5,3/4,2/6,
{16}Cf,,,,1,2,3<7[4:1],4<8[4:1],5<1[4:1],,A3,A4,A5,A6,A7,,2,3,4z8b[8:1],5,6,,,,7<3[4:1],6>2[4:1],5>1[4:1],4,A7,A6,A5,A4,
{16}C,,,,8,7,6>2[4:1],5>1[4:1],4>8[4:1],,A6,A5,A4,A3,A2,,7,6,5s1b[8:1],4,3,,,,2>6[4:1],3<7[4:1],4<8[4:1],5,A2,A3,A4,A5,
{16}C,,,,4,3>7[4:1],2<6[4:1],1<5[4:1],8h[8:1]/4,,A2,A1,A8/5x-1[8:1],A7,A6,,1,2,3-7b[8:1],4,5h[8:1],,,,4,4,6,6,3,7,2,8,
{16}C,,,,5,6<2[4:1],7>3[4:1],8>4[4:1],1h[8:1]/5,,A7,A8,A1/4x-8[8:1],A2,A3,,8,7,6-2b[8:1],5,4h[8:1],,,,5,5,3,3,6,2,7,1,
{16}8bp4[8:1],,,,4,3,2,1,8h[8:1],,4,3,2<6[4:1],1<5[4:1],8<4[4:1],,A2,A1,A8,A7,A6,,Ch[16:1],,2<6[4:1],1<5[4:1],8<4[4:1],7<3[4:1],A2,A1,A8,A7,
{16}1bxq5[8:1],,,,5,6,7,8,1h[8:1],,5,6,7>3[4:1],8>4[4:1],1>5[4:1],,A7,A8,A1,A2,A3,,Ch[16:1],,7>3[4:1],8>4[4:1],1>5[4:1],2>6[4:1],A7,A8,A1,A2,
{16}7bh[4:1],,,,8,1>5[4:1],2>6[4:1],3<7[4:1],4/8,,A2,A3,7x-3[8:1]/A4,A5,A6,,3,2,1s5b[8:1],8,7,,,,6,6,2,2,8,7,6,5,
{16}2bh[4:1]/4b,,,,1,8<4[4:1],7<3[4:1],6>2[4:1],5/1,,A7,A6,2x-6[8:1]/A5,A4,A3,,6,7,8z4b[8:1],1,2,,,,3,3,7,7,1,2,3,4,
{4}5b-3>2-8<7-5>4-2<1-7<6-4>3-1<8-6>5[2:7]/Cf,,,,,,,,,,,,,,,,
{4}6h[2:3]/3>7V14qq5[2:3],,,,,,,7h[1:2],5>6V83V16[2:3],,,,,,,,
{4}4/6,4/6,3/5,3/5,2/E5,2/B5,1/B6,1/E7,
{4}5/3,5/3,6/4,6/4,7/E5,7/B4,8/B3,8/E3,
{8}7/Ch[4:7],7,7,7,6,6,6,6,5,5,5,5,4,4,4,4,
{16}3,5,3,5,2,6,2,6,1,7,1,7,8<8[8:5],8V24V68[16:9],8,8,,,,,,,,,,,,,Cf,,,,
{16}1b<6[8:1]/7b,,8,3,1x,5,5h[8:1],,4,3,2,1,8/3x,7,6,5,
{16}8>3[8:1],,1,6,8x,7,7h[8:1],,4,5,6,7,4x/8,1,2,3,
{16}7-4[8:1],,6,2,7x,8,8h[8:1],,3,2,1,8,7/3x,6,5,4,
{16}2-5[8:1],,3,8,2x,1,1h[8:1],,6,7,8,1,2/6x,3,4,5,
{16}8q4[8:1],,1,6,8x,5,5h[8:1],,6,7,8,1,2/7x,3,4,5,
{16}1<6[8:1],,8,2,1x,3,3h[8:1],,5,4,3,2,5x/1,8,7,6,
{16}2,3,4,5,6/1x,7,8,1,2/6,7,8,1,2/5x,3,4,5,
{16}8/6,1,2,3,4x/5,6,7,8,1/2,3,4,5,1x,8,7,6,
{16}4b<7[8:1]/5b,,2,2,4x,8,8h[8:1],,1,2,3,4,1x/5x,2/6,3/7,4/8,
{16}1<6[8:1]/5,,2,2,1x,3,3h[8:1],,5,4,3,2,1x/5x,4/8,3/7,2/6,
{16}1<8-6[8:1]/5,,3,3,1x,5,5h[8:1],,4,3,2,1,4x/8x,3/7,2/6,1/5,
{16}4/8>1-3[8:1],,7,7,8x,6,6h[8:1],,4,5,6,7,4x/8x,1/5,2/6,3/7,
{16}4b<7[8:1]/8b,,3,3,4x,2,2h[8:1],,8,1,2,3,4x/8x,1/5,2/6,3/7,
{16}8>3[8:1]/4,,4,4,8x,5,5h[8:1],,4,3,2,1,4x/8x,3/7,2x/6x,1/5,
{16}8b,4,1,5,2,6,1b,8,2,7,3,6,2b,1,3,8,
{16}4b,3,2/1,8,7x/5x,4,3/8,7,6x/2x,1,8/7,6,1bx/5x,2,3,4,
{96}1bx-6-3-8-5-2-7-4[2:7],5bx-2-7-4-1-6-3-8b[2:7],,,,,,,,,,,,,,,,,,,,,,,
{4},,,
{1},,,
{8}3h[2:3],,5,5,,6,6,,7,7,,8,8h[2:1],,B5/B4/E5,,1h[2:3],,2,2,,3,3,,4,4,,5V38[8:3],4V61b[4:1],,,,
{8}A8/D1/A1/D8/D2,,,,3,2<4[2:1],1,8h[4:1],,,C,,2,1<3[2:1],8,7h[4:1],,,C,,1,8<2[2:1],7,6h[4:1],,,C,,8>3[8:1],7,6,5,
{8}4h[4:1],,,,6,7>5[2:1],8,1h[4:1],,,C,,7,8>6[2:1],1,2h[4:1],,,C,,
{16}4h[8:1],,1,8,6/7,5,4,3,
{16}2,6,3,7,4,8,5,1,2xh/6x,1h/5,4/8h,3/7h,2-6[1:2]/6h,1/5h,4h/8,3h/7,
