&title=1,000,000 TIMES
&artist=MY FIRST STORY & chelly
&first=0.03
&des=0.000001
&lv_5=14
&inote_5=(200)
{1},
{1}3q5<3[4:6]/4h[4:7],
{1},
{1}6p4>6[4:6]/4h[4:7],
{1},
{1}3qq6<4[4:6]/5h[4:7],
{1},
{1}5<4[4:4]*>6[4:4]/6,
{16},,,,,,,,4x,5x,4x,5x,4x,,,,
{8}5<2[8:4]/6b,,,8,,,6,,
{8}3/5pp5[8:4],,,,2,,,,
{8}6/4<1[8:4],,,7,,,5,,
{8}3/4pp4[8:4],,,,1,,,,
{1}2>6[4:2]*<6[4:2]/3,
{16}7b,,5,6,5,6,4b,,{8},3b/7b,7b-4[32:5]/3b-8[32:5],3b/7b,
{1}7b<1s5[8:8]/3b,
{8},,,,,6b/2b,6b-1[32:5]/2b-5[32:5],6b/2b,
{1}2b>8z4[8:8]/6b,
{8},,,,,{24}7xb/2xb,6xb/3xb,4xb/5xb,,,,,,,
{16}4,5,4,5,4,5,4,5,4,5,4,5,4,5,4,5,
{16}3,6,3,6,3,6,3,6,3,6,3,6,3,6,3,6,
{16}2,7,2,7,2,7,2,7,2,7,2,7,2-5-1-6b[16:8],7,2,7,
{8}2xb,,,,,,4x-1[8:1]/5x,,
{8}8b,7,6,2,3,4,56,5,
{8}8-6[8:1],5,8,3-1[8:1],4,3,6-4[8:1],6,
{8}1,2,3,7,6,5,34,4,
{8}1-3[8:1],4,1,6-8[8:1],5,6,3-5[8:1],3,
{8}8b,7,6,1,2,3,46,4,
{8}7-1[8:1],4,7,3-5[8:1],8,3,7-4[8:1],7,
{8}1,2,3,8,7,6,35,5,
{8}4,7,1,{24}8xbp2b[24:6],7xb,6xb,5xhb[4:1],,,,,,,,,,,,
{8}6,7,8,21,3,4,65,5,8-4[8:1],3,8,2-5[8:1],6,2,7,7,
{8}83,2,1,87,6,5,43,4,
{8}1-5[8:1],6,1,7-4[8:1],3,7,2,2,
{8}5b/1b,6,7b/3b,2,5b/1b,6,7b/3b,2,
{16}1,6,1,6,1,,{24}2xbq8b[24:6],3xb,4xb,5xhb[4:1],,,,,,,,,,,,
{8}3h[4:1],,4,,4,3,52,,
{8}3h[4:1],,4,,4,3,5/2-4[8:1],,
{8}6h[4:1],,5,,5,6,47,,
{8}6h[4:1],,5,,5,6,4/7,{16}8,3,
{8}8h[4:1],,1,,1,8,72,,
{8}8h[4:1],,1,,1,8,2>5[4:1]/7,,
{8}5<8[4:1],,8>3[4:1],,3<6[4:1],,6,,
{8}8,8bw4[8:1],,8b,,{16}2,6,2,6,2,6,
{8}2-5[8:1],,8,,6/4h[4:1],,7,7,
{8}4/7-4[8:1],,1,,3/5h[4:1],,3,{16}3,5,
{8}3v8[8:1],,7,,1h[4:1]/5,,6,6,
{8}6v1[8:1]/1,,3,,4/8,{16}7,3,7,3,7,3,
{8}7-3[8:1],,1,,2/4h[4:1],,3,3,
{8}3v8[8:1]/5,,7,,6/1h[4:1],,5,{16}5,1,
{8}5-1[8:1],,3,,48,7,56,4,
{8}3bv6[8:1]/5b,,7b>4b[16:5],,E5f,,,,
{8}5xh[8:1]/6xh[8:1],,4xh[8:1]/5xh[8:1],,5xh[8:1]/7xh[8:1],,5xh[8:1]/3xh[8:1],,
{8}8-4[8:1]/4,3b,3hb[4:1],,5,5,2,2,
{8}4xh[8:1]/3xh[8:1],,5xh[8:1]/4xh[8:1],,4xh[8:1]/2xh[8:1],,4xh[8:1]/6xh[8:1],,
{8}1-5[8:1]/5,6b,6hb[4:1],,{12}4,3,2,8,7,6,
{8}3xh[8:1]/5xh[8:1],,4xh[8:1]/6xh[8:1],,2xh[8:1]/5xh[8:1],,4xh[8:1]/8xh[8:1],,
{8}6-2[8:1]/2,3b,3hb[4:1],,4,4qq5b[8:3],,{24}5b,,,
{8},,7,7,6,6,5,5,
{8}4,4,35,35,{16}2,6,2,6,2-5[8:1],6,2,6<6b[2:3]*-8-2-4-6[2:3],
{1}2x,
{1},
{16}47,,6,5,6,,74,,6,5,6,,74,,4hb[8:5]/7b,,
{2},{16}6x,5x,4x,3x,6x,5x,4x,3x,
{8}8b-4[8:1],,8/2-6[8:1],,2/5-8[8:1]*-2[8:1],,5,,
{24}3xb,4x,5x,6x,7x,8x,1x,2x,3x,4xhb[8:1]/6xhb[8:1],,,{8},,46,46,
{8}7-4[8:1]/3-8[8:1],,37,,6-1[8:1]/2-5[8:1],,2/6<5b[8:3],,
{8}A7f/8b,,,,,6,5,4,
{8}3-5[8:1],3,6v1[8:1],7,4,,2-4[8:1],2,
{8}5v8-6[4:1],6,3,,2,2,3,4,
{16}5h[16:3]/6,,,7,5,,6,,3/4h[16:3],,,2,4,,3,,
{8}4b<7[8:1]/5b>2[8:1],,4b/5b,,{16}1,8,1,8,1,8,1,8,
{8}2q6[8:1],2,7<4[8:1],,3p7[8:1],,5<8[8:1],5,
{8}1-5b[8:1],,6<1[8:1],6,,2,2,3,
{8}4-8[8:1]/7-4[8:1],,47,,5-1[8:1]/2-5[8:1],,5<4b[8:3]/2,,
{8}A6f/8b,,,.,,7,6,5,
{8}4-1[8:1],4,8V64[4:1],7,2,,3-8[8:1],3,
{8}7V53[4:1],6,1,,{16}2h[16:3],,,4,2,,3,,4/7h[16:3],,,5,7,,6,,5-7[8:1]*-3[8:1]/3,,,,5,,,,
{16}2,1,2,1,3,8,3,8,4,7,4,7,5,6,5,6,
{8}5-1b[8:1],,8b,,27,7,36,6,
{8}1/7-2[8:1],,37,4-6-8[16:3]*-2[8:1],,4,,,
{8}2,2,53,3,28,2,35,3,
{8}8/2-7[8:1],,26,5-3-1-7[16:5],,5/3h[4:1],,,
{8},3xqq1b[16:3],3x,5x,,6xpp8b[16:3],6x,4x,
{8}3,3,7,7,1,1w5[8:1],,,
{8},2xpp4b[16:3],2x,7x,,8xqq6b[16:3],8x,2x,
{8}1,1,7,7,{12}5,5,6,4,4,5,
{8}3x,4x,3hb[8:1],8hb[8:1],5hb[8:1],6hb[8:1],2hb[8:1],5b,
{8}3x/4x,4x,2hb[8:1],8hb[8:1],5hb[8:1],6hb[8:1],1hb[8:1],5b,
{8}2x/4x,4x,1hb[8:1],7hb[8:1],5hb[8:1],6hb[8:1],8hb[8:1],5b,
{8}2x/4x,4x,1hb[8:1],7hb[8:1],{16}5xb-1[8:1],4x,3x,2x,{8},,
{8}28,3,27,6,37,{16}4,5,3,6,4,5,
{8}3b-5[8:1]*-6[8:1],,3x>5b[16:5],,7xh[4:1],,,,
{8}8bqq5[2:1]*pp3[2:1]/B4f/E4/E5/D4/D5,,,,,,,,
{8}6-8[8:1],2,6,3-1[8:1],7,3,6-4[8:1],6,
{8}1,2,3,7,6,5,34,4,
{8}1-5[8:1],6,1,7-4[8:1],3,7,1,1,
{8}2b/8b,7,1b/6b,2,3b/8b,7-3b[8:1],1b/6b,7b,
{8},1-4b[8:1]*-6b[8:1],28,1b,,5s1b[8:1]*-1b[8:1],37,{24}5b,Cf,
