&title=Phases of the Moon
&artist=xi
&first=0.06
&des=aΔ
&lv_5=14+
&inote_5=(102)
{4},
{4}6h[3:1],{48},5,4,3,2h[12:5],,{8},,,
{32}7,,1,8,1,8,1,8,1,8,1,8,1,8,1,8,1,8,1,8,{24}1,8,1,{8}7,2,
{8}3h[3:1],,{48},4,5,6,{16}7h[4:1],,,{48}5,4,3,2h[6:1],,{16},,
{32}7,,1,8,1,8,1,8,1,7,2,6,3,5,4,5,4,5,4,5,4,{64}6,,,3,,,
{4}7h[3:1],{48},5,4,3,2h[4:1],,,{8},{48}5,6,7,8h[4:1],,,{8},
{48}4,3,2,1,,{8},2,{16}5,4,
{24}7,5,6,2,4,3,
7,8,1,2,
6,7,8,1,
5,6,7,8,
3,4,2,6,5,7,
1,2,3,
(103)
5,6,7,1,2,3,
(104)
6,7,8,2,3,4,
(105)
8,7,6,4,3,2,
{32}7,8,7,8,
6,1,6,1,
5,4,5,4,
6,3,6,3,
1,2,1,2,
8,3,7,4,
(137)
{16}6,7,8,{24}2,3,4,5h[24:31],{4},,,,,,
(208)
{6}5b/4,{48}4,3,{32},,,,4,5,,,{48},,6,5,,,
{12},2,4,2,4,1,5,2,6,3,7,{16}2,3,4,5,6,7,8,1,
{6}4/2,{32}5,4,,,{48},,5,6,{32},,,,4,3,,,{24},
{12}7,5,7,5,8,4,7,3,6,2,{16}7,6,5,4,3,2,1,8,
{6}7/5,{48}4,3,{32},,,,5,4,,,{48},,5,6,,,,{32},,5,4,,,{48},,3,4,,,
(209)
{12},2,1,2,8,3,7,
(210)
4,6,3,6,2,5,
(211)
1,2,3,7,5,6,
(212)
2,4,3,8,6,7,
(213)
{24}4,5,4,5,4,5,4,5,4,5,4,5,
(208)
{12}4,,6/3,,7/2,,
8,7,6,1,2,3,
5,6,7,2,3,4,
1,8,7,6/4,3,2,
8/1,7,6,5/3,2,1,
(203)
{16}7,8,7,8,
(198)
7,8,7,8,
(193)
7,8,7,8,7,8,7,8,7,8,7,8,7,8,7,8,7,8,7,8,{12}7,8,{8}6,
(155.5)
{16}4/3b,,2,2,1,,6/5,,7,7,8,,
4/3,,2,2,1,,6/5,,7,8,1,2,
5/3,,7,7,8,,6/4,,2,2,1,,
5/3,,7,7,8,,{24}3,4,3,{16}5,2,6,1,
8/7,,6,6,5,,2/1,,3,3,4,,
8/7,,6,6,5,,2/1,,3,4,5,6,
1/7,,3,3,4,,2/8,,6,6,{24}4,3,2,
{16}5/1,,7,2,6,3,{24}5,4,5,{16}3,6,2,7,
1,8,2,7,3,6,{24}4,5,4,{16}6,3,7,2,
(156)
8,8,4,7,7,4,
(157)
6,6,3,5,5,2,
(158)
4,4,1,3,3,2,
(159)
1,1,3,8,8,4,
(155.5)
7/5,,6,3,4,3,2,3,1,3,8,3,
7/4,,6,3,6,5,6,7,6,8,6,1,
5/2,,4,3,2,3,1,3,8,3,7,3,
6/4,,7,5,7,6,7,8,7,1,7,2,
(156)
6/3,,,5,6,7,
(157)
2,3,4,1,8,7,
(158)
5,4,3,8,7,6,
(159)
4,3,2,7,6,5,
(155.5)
{32}3,2,1,8h[192:55],
(153)
{16},,,,,,,4,{8},
(150.5)
5,6,7,
(148)
1,2,3,
(102.5)
{48}6,7,8,1h[12:1],,,,
(102)
{16}4,8,3,7,2,6,8,5,{24}3,4,3,{16}4,2,8,5,
7,4,6,3,5,2,4,1,{24}7,8,7,{16}8,5,{12}2,7,3,
(102.5)
{48}8,7,6,5h[12:1],,,,
(102)
{16}4,4,{24}1,2,8,1,7,8,6,7,5,
{16}8,8,4,5,6,7,8/3,3,5,5,4,4,6,6,
{24}8,7,1,
8,2,1,{16}3,3,5,,
(102.5)
{48},4,3,2,1h[12:1],,,,
(102)
{16}7,6,4,5,3,7,8/2,3,6,1,4/1,5/2,6/3,7/4,8/5,,
7,1,5,2,6,4,{24}5,3,4,{16}3,6,1,8,2,7,
{48}3,2,1,8,,,
{16}5,5,{12}7/2,6/3,5/4,
{16}6/3,3,8,2,7,1,6,4,
5/3,5,2,6,{32}1,8,1,8,1,8,1,8,
2,,,,8,7,6,5,1,2,3,4,{8}7,
(102.5)
8w4[204.5#8:1],8b,
{32}2,5,2,6,2,7,2,8,
2,1,2,3,2,4,2,5,
2,6,2,7,{16}2,8/3,1w5[204.5#8:1],,1,,
{32}7,4,7,3,7,2,7,1,
7,8,7,6,7,5,7,4,
7,3,7,2,{16}7,1/6,8w4[204.5#8:1],,8,,
{32}7,6,5,4,1,2,3,4,
7,8,7,8,6,1,6,1,
8,3,8,3,1,2,1,2,
{8}1-5[204.5#8:1],
(103)
1,{32}4,3,2,1,8,7,6,5,
8,7,6,5,4,3,2,1,
4,3,2,1,8,7,6,5,
(103.5)
1,2,3,4,5,6,7,8,
5,6,7,8,1,2,3,4,
1,2,3,4,5,6,7,8,
5,6,7,8,1,2,3,4,
(103)
{4}5h[2:1],7h[2:1],,,
(102)
{48}5,4,3,{24}2h[96:7],{12},,8,7,6,{16}1,2,3,4,{12}1,8/2,7/3,
(208)
{4}5/1b,{16}6,,3,5,
4,6,4,7,3,8,3,1,
2,8,2,7,1,6,1,5,
8,,4/2,,1,8,7,6,
3,5,3,5,1,7,1,7,
4,6,4,6,2,8,2,8,
3,4,7,6,
2,3,6,5,
1,2,8,7,
{4}4,6/2,
{16}7,1,8,2,1,3,4,2,
5,3,6,4,7,5,8,6,
7,5,6,4,5,3,5,3,
4,3,4,3,
6,,1,8,2,8,3,7,
4,7,3,6,2,6,1,5,
8,1,2,3,5,6,7,8,
1/3,,2,2,2,,,,8/4,,,,
6,3,6,3,7,5,7,5,8,1,8,1,
4,2,4,2,5,3,5,3,
1,3,1,3,8,4,8,4,
7,,6/5,,4,3,2,1,
8,,4/3,,5,6,7,8,
1,,6/5,,4,3,2,1,
7/8,,5/3,,6/2,7/3,8/4,1/5,
(102)
6/2,,{48}8h[8:3],,,,,5,4,{4}3h[12:7],{48}7,6,5h[48:17],,{4},{48},2,1,{8}8,
(198)
{12}6,7,8,2,3,4,
(197)
7,6,5,1,2,3,
7,5,6,2,4,3,
{16}7,8,7,8,6,1,6,1,
5,2,5,2,4,3,4,3,
(208)
{12}6,7,8,2,3,4,
6,5,7,3,4,2,
{10}8,1,7,2,6,
{8}3,4,5,6,
(102)
{48}4,3,2,{8},{48},,,6h[48:17],,,,5,4,{6}3h[24:7],{48},,,,5,4,{2},
(101)
{48},,,,5,6,7,,{8},{48},,3h[48:17],,,,,4,5,6h[96:29],{8},{32},,,4,5,,,{8},,
(201.5)
{16}2,1,2,1,2,1,2,1,
2,1,2,1,2,1,2,1,
2,1,2,1,2,1,2,1,
2,3,2,3,
(202)
2,3,
(203)
2,3,
(204)
2,3,
(205)
2,3,
(206)
2,3,2,3,
2,3,2,3,
2,3,2,3,
2,3,2,3,
(202)
{12}1,
(197)
1,
(172)
1,
(145)
8/2b,,,{16}6,
(155)
6,4,
(156)
7,3,
(157)
3,5,
(158)
2,8,
(159)
8,4,
(160)
6,1,
(159)
1,5,
(158)
3,7,
(157)
7,4,
(156)
6,5,
(155)
5,6,
(154)
6,4,
(153)
4,5,
(152)
5,3,
(155)
{12}4,2,6,
7b/1,,{48},2,3,4,5,6,7,8,1,2,3,4,5,6,7,8,{8}1,5,
(156)
7/3,{48},,,6,5,4,3,2,1,8,7,6,5,4,3,2,1,8,{8}7,3,
(157)
5/2,{48},,,3,4,5,6,7,8,1,2,3,4,5,6,7,8,1,{24}2,,,7,6,5,
(155)
{16}4/3,,1,8,7/2,6,4,5,4/3,2,8,1,
(156)
7/2,,{48},,,7,6,5,4,3,2,1,8,7,6,5,4,3,2,1,{16}8,4,6,2,
(157)
5/1,,{48},,,2,3,4,5,6,7,8,1,2,3,4,5,6,7,8,{16}1,5,{24}3,2,1,
(155)
{16}7/8,,6/2,6/2,6/2,,
{48}5,4,3,2,1,8,
7,6,5,4,3,2,
1,8,7,6,5,4,
(156)
{16}3,8,1,2,{24}4,3,4,{16}2,5,1,6,8,7,
(157)
6/1,,,{48}2,1,8,7,6,5,4,3,2,1,8,7,6,5,4,{24}3,,,6,7,8,
(155)
1/2,,,,{48},8,1,2,3,4,5,6,7,8,1,2,3,4,5,6,{24}7,,,4,3,2,
(156)
8/1,,,,{48},1,8,7,6,5,4,3,2,1,8,7,6,5,4,3,{24}2,,,5,6,7,
(157)
8/1,,,,{48},7,8,1,2,3,4,5,6,7,8,1,2,3,4,5,{24}6,8,1,{16}2,5,6/4,,,,{48},
(140)
{24}1,2,3,5,6,7,
4,3,2,6,7,8,
(141)
3,2,1,7,6,5,
2,3,4,8,7,6,
3,2,1,
(142)
5,6,7,
(143)
2,3,4,
(144)
5,6,7,
(145)
8,1,2,
(150)
{16}5,3,6,4,
(151)
7,5,8,6,
(155)
{24}1,8,7,
(160)
6,5,4,
(165)
2,1,8,
(170)
7,6,5,
(175)
3,2,1,
(170)
8,7,6,
(165)
4,3,2,1,8,7,
6,5,4,3,
(155)
{16}2,
8,8,
(150)
7,7,
(145)
6/2,6/2,
(140)
5/1,5/1,
(135)
4/8,
(130)
4/8,
(125)
3/7,
(115)
3/7,
(155)
{4}2/6,,,,7b/3,,5/4b>5[2:5],
