&title=Black Swan Lake
&artist=葉月ゆら
&first=-0.363
&des=DJOKA
&lv_5=14
&inote_5=(186)
{4},,
{8}3,4,5,6,5,4,3,2,
{8}1h[4:1],8,7h[4:1],8,1,2,3,4/5,
{8},3,4,5,6,5,4,3,
{8}1/8,7,1/8,2,1/8-4[8:1],6,1/8b,,
{8}3/5,4,5,6,4/5,4,3,2,
{8}1h[4:1]/7,8,7h[8:1],8,1/8,2,3,4/5,
{8},3,4,5,6/4,5,4,3,
{16}4/8,,,2/6,,,3/7,,2-5[8:1]/6-1[8:1],,,,2b/6b,,,,
{16}4,6,4,6,3,5,3,5,2,6,2,6,1,7,1,7,
{16}8h[16:3],,,7h[16:3],,,6,,5h[16:3],,,4h[16:3],,,3,,
{16}2,8,2,8,1,7,1,7,2,6,2,6,3,5,3,5,
{16}4h[16:3],,,3h[16:3],,,2,,1h[16:3],,,8h[16:3],,,7,,
{24}2/8,,,2/8,3,4,{16}5,,7,8,6,1,5,2,4,3,4,,
{24}7/1,,,7/1,6,5,{16}4,,2,1,3,8,4,7,5,6,5,,
{16}7b-4[8:1],,,8,,,1,,2b-5[8:1],,,8,,,7,,
{16}2/6,,,3/7,,,4/8,,1,5,1,5,1,5,1,5,
{16}1-5[4:1],,,,,,,,,,1,8,2b/7b,,,,
{8}3h[4:1],,5,,7-3[8:1],5,7,,
{8}2h[4:1],,4,,2^7[8:1],3,2,,
{8}6h[4:1],,4,,2-6[8:1],4,2,,
{16}8qq5[16:6],,,,,,2,3,4,,,,1,,,,
{8}6h[4:1],,4,,2-6[8:1],4,2,,
{8}7h[4:1],,5,,7^2[8:1],6,7,,
{8}3h[4:1],,5,,7-3[8:1],5,7,,
{16}1/2,,3,,7/8,,6,,4,6,3,5,2,4,1,3,
{4}1pp5[16:10],5,6,7,
{4}7qq4[16:10],4,3,2,
{4}1-7[4:1],7-2[4:1],2-6[4:1],6-3[4:1],
{4}3-5[4:1],5>1[16:6],7-3[8:1],7b,
{8}2-4[8:1],,1/2,,2-5[8:1],1,2,,
{8}7-5[8:1],,8/7,,7-4[8:1],8,7,,
{16}2/7,,3,4,2,,5,4,6,,3,4,2,,4/5,,
{8}2/7,,4/8,2/6,,3qq8[16:14]/7qq4[16:14],,3b/7b,
{1},
{16}2>4[8:1],,,5,,,6,,7<5[8:1],,,4,,,3,,
{8}1/2,1/3,,7/8,6/8,,5b/4b,5b-1[16:4]/4b,
{2},{32}8/2,7/3,6/4,5,,,,,8b/2b,,,,,,,,
{16}7-4[8:1]/3,,,,7/8,,,,1-5[8:1],,,8,1,,8,,
{16}7^4[8:1],,,,{24}7/3,2,1,8,,,,,,1/5,2/6,7/3,8-4[8:1]/4,,,,,,
{16}3b-5[8:1],,,,6,,7b-4[8:1],,,,7/3,,2,,1b-5[8:1],,
{16},,8,,8<4[16:3],,,,4,3,2,1,8,7,6,5,
{16}4h[16:8],,,8,,,7,,6,,,,1-7[8:1]*-6[8:1],,,,
{16}1-3[8:1]*-4[8:1],,,,1-5[8:1],,,,1b,,,,,,2pp6[2:1],1,
{16}2,,,,8,,,,7,,,5,,,7/1,,
{16}2/6,,4,5,3,,1^6[8:1]/7-3[8:1],,,,1b/7b,,,,,,
{16}2-5[8:1],,,,1/2,,,,8-4[8:1],,,1,8,,1,,
{16}2^5[8:1],,,,{24}2/6,7,8,1,,,,,,8/4,7/3,2/6,1-5[8:1]/5,,,,,,
{16}6b-4[8:1],,,,3,,2b-5[8:1],,,,2/6,,7,,8b-4[8:1],,
{16},,1,,1>5[16:3],,,,5,6,7,8,1,2,3,4,
{16}5h[16:8],,,1,,,2,,3,,,,8-2[8:1]/8-3[8:1],,,,
{16}8-5[8:1]/8-6[8:1],,,,8-4[8:1],,,,8b,,,,,,1,8,
{8}7/2,,6V41[16:5]/3V58[16:5],6/3,,,,,
{8}3-7[8:1],,3/5-8[8:1]*-2[8:1],,5,,3/6,4/5,
{16}1,8,1,8,1,8,1,8,1,8,1,8,2-5[8:1]/7,,,,
{8}2b/7-3[8:1],,7b,4b-8[8:1],,6b,,2/7,
{8}5/4,,5/3,5/3,6/4,6/4,5/2,5/2,
{16}8/4,,6,5,6,,8p4[8:1]/3^8[8:1],,,,8b/3b,,,,,,
{16}1v6[8:1],,,8,,,7,,5^2[8:1],,,,5/6,,,,
{16}8v3[8:1],,,1,,,2,,4^7[8:1],,,,3/4,,,,
{8}3h[8:1],4h[8:1],5h[8:1],6h[8:1],2h[8:1],1h[8:1],8h[8:1],7h[8:1],
{16}1^4[8:1],1,8,,1^6[8:1],,6,,1-5[8:1],,5,,1b,,,,
{16}7V15[16:3],,,4,,,3,,2V48[16:3],,,5,,,6,,
{16}7V51[16:3],,,1<4[16:5],,,4,,4,3,2,1,8b,,,,
{16}2V84[16:3],,,5,,,6,,7V51[16:3],,,4,,,3,,
{16}2h[4:1],,4,,7h[4:1],,5,,3,4,3,4,3,4,3,4,
{16}3V17[16:3],,,4,,,5,,6V82[16:3],,,5,,,4,,
{4}3>7[4:1],7<3[4:1],3>7[4:1],7,
{16}6V82[16:3],,,5,,,4,,3V17[16:3],,,4,,,5,,
{16}5h[16:6],,,,,,1,1,1-5[8:1],,,,1b,,,,
{8}3/7,,2/6,2-6[8:1]/6-2[8:1],,2qq4[2:1]/6qq8[2:1],,,
{2},{16}2/7,,,4/5,,,1/8,,
{16}1/8,,7,5,7,,2,4,2,,6,5,6,,3/4,,
{8}6h[4:1],5,7,3h[4:1],4,2,4/5,,
{16}6,5,6,7,6,5,6,7,6,5,6,7,6,5,6-2[8:1],,
{8},2,3,4-8[8:1],5,6,7,,
{8}3/4,2/4,,6/5,7/5,,1b/8b,1b-4[2:1]/8b-5[2:1],
{1},
{1}6h[1:1],
{1}2h[16:12],
{8}3h[4:1]/4h[4:1],,,4h[4:1]/5h[8:3],,,,5h[4:1]/6h[8:3],
{2},6/5-1[8:1],
{8}6^3[16:6],,2,,2,,2,,
{8}2q6[16:6],,7,,7,,7,{16}4,4,
{8}5pp1[2:1],5,4,4,3,3,2,2,
{8}1/2,3/4,5/6,3-8[8:1]/7-4[8:1],,3b/7b,,,
{32}1/7,2/6,3/5,4,,,,,{16}1b/7b,,,,8-4[8:1],,,1,8,,1,,
{16}2^5[8:1],,,,{24}2/6,7,8,1,,,,,,8/4,7/3,2/6,1-5[8:1]/5,,,,,,
{16}6b-4[8:1],,,,3,,2b-5[8:1],,,,2/6,,7,,8b-4[8:1],,
{16},,1,,1>5[16:3],,,,5,6,7,8,1,2,3
,4,
{16}5h[16:8],,,1,,,2,,3,,,,1-3[8:1]/8-6[8:1],,,,
{16}1v4[8:1]/8v5[8:1],,,,1^6[8:1]/8^3[8:1],,,,1b/8b,,,,,,1,8,
{8}2/7,,3V58[16:5]/6V41[16:5],3/6,,,,,
{8}3-7[8:1],,3/5-2[8:1]*-8[8:1],,5,,3/6,4/5,
{16}1,8,1,8,1,8,1,8,1,8,1,8,2-5[8:1]/7,,,,
{8}2b/7-3[8:1],,7b,4b-8[8:1],,6b,,2/7,
{8}4/5,,2/5,4/6,3/5,4/7,2/6,3/8,
{16}1/5,,3,4,3,,1q5[8:1]/6^1[8:1],,,,1b/6b,,,,,,
{16}4,6,4,6,3,5,3,5,2,6,2,6,1,7,1,7,
{16}8h[16:3],,,7h[16:3],,,6,,5h[16:3],,,4h[16:3],,,3,,
{16}2,8,2,8,1,7,1,7,2,6,2,6,3,5,3,5,
{16}4h[16:3],,,3h[16:3],,,2,,1h[16:3],,,8h[16:3],,,7,,
{24}2/8,,,2/8,3,4,{16}5,,7,8,6,1,5,2,4,3,4,,
{24}7/1,,,7/1,6,5,{16}4,,2,1,3,8,4,7,5,6,5,,
{16}7b-4[8:1],,,8,,,1,,2b-5[8:1],,,8,,,7,,
{16}2/6,,,3/7,,,4/8,,1,5,1,5,1,5,1,5,
{16}1,2,3,4,2,3,4,5,3,4,5,6,7b/3b,,,,
{8}4/3,5b/1b,,6/5,8b/4b,,7b/3b,5b/1b,E
